Вы используете незарегистрированную версию компонента "Вкладки"!

Поиск

2019 Stephane Grappelli - Keep Cool (Remastered) {Nagel Heyer} [24-44,1]

2019 Stephane Grappelli - Keep Cool (Remastered) {Nagel Heyer} [24-44,1]
Стили:
Издатель (лейбл):
Битрейт аудио:
lossless
Лог проверки качества
foobar2000 1.4.3 / Dynamic Range Meter 1.1.1
log date: 2020-09-12 09:36:43

--------------------------------------------------------------------------------
Analyzed: Stephane Grappelli / Keep Cool
--------------------------------------------------------------------------------

DR         Peak         RMS     Duration Track
--------------------------------------------------------------------------------
DR9       -1.00 dB   -11.51 dB      3:40 01-How About You
DR8       -1.00 dB   -11.11 dB      4:30 02-Nuages
DR8       -1.00 dB   -10.76 dB      3:34 03-Alabamy Bound
DR8       -1.00 dB   -11.80 dB      2:56 04-You Better Go Now
DR8       -1.00 dB   -10.29 dB      3:24 05-Le Tien
DR10      -1.00 dB   -12.39 dB      2:53 06-Swinging with Django
DR9       -1.00 dB   -11.58 dB      3:38 07-Like Someone in Love
DR7       -1.00 dB   -10.61 dB      5:00 08-Django
DR9       -1.00 dB   -11.50 dB      4:05 09-Minor Swing
DR11      -1.00 dB   -15.16 dB      3:02 10-My Serenade
DR8       -1.00 dB   -10.84 dB      3:23 11-Daphné
DR9       -1.00 dB   -12.11 dB      3:44 12-Soft Winds
DR8       -1.00 dB   -11.11 dB      3:34 13-Makin' Whoopee
DR8       -1.00 dB   -10.23 dB      3:32 14-Pent-Up House
DR11      -1.00 dB   -15.67 dB      2:39 15-Tears
DR9       -1.00 dB   -11.96 dB      3:02 16-Daphné II
DR12      -1.00 dB   -15.44 dB      3:05 17-Bricktop
DR13      -1.00 dB   -16.90 dB      3:17 18-Keep Cool
DR11      -1.00 dB   -13.96 dB      3:17 19-Minor Swing II
--------------------------------------------------------------------------------

Number of tracks:  19
Official DR value: DR9

Samplerate:        44100 Hz
Channels:          2
Bits per sample:   24
Bitrate:           980 kbps
Codec:             FLAC
================================================================================
Any questions - support@pro-jazz.com. Есть вопросы - support@pro-jazz.com
09:47
265
Нет комментариев. Ваш будет первым!