Вы используете незарегистрированную версию компонента "Вкладки"!

Поиск

2019 Orbit Folks - Six {Challenge CR73472} [24-44,1]

2019 Orbit Folks - Six {Challenge CR73472} [24-44,1]
Издатель (лейбл):
Номер по каталогу:
ACR9885
Носитель:
WEB
Формат:
PCM
Тип рипа:
tracks+.cue
Количество каналов:
2.0
Разрядность/ЧД:
24/44,1
Битрейт аудио:
lossless
Время звучания:
00:46:53
Наличие сканов:
web
Релизёр (источник):
M0p94ok
Лог проверки качества
foobar2000 1.5.5 / Dynamic Range Meter 1.1.1
log date: 2020-10-12 11:13:29

--------------------------------------------------------------------------------
Analyzed: Orbit Folks / Six
--------------------------------------------------------------------------------

DR         Peak         RMS     Duration Track
--------------------------------------------------------------------------------
DR10      -1.00 dB   -13.09 dB      7:04 01-My Favorite Rhythms
DR11      -1.00 dB   -14.40 dB     10:02 02-The Ant Colony (A Tribute to Gödel, Escher, Bach)
DR10      -1.00 dB   -12.86 dB      5:35 03-Kaleidophone
DR11      -1.00 dB   -14.04 dB      5:39 04-Mali Blues
DR11      -1.00 dB   -14.64 dB      6:47 05-Switchery
DR11      -1.00 dB   -14.41 dB     11:49 06-Kaleidoscope Africaine
--------------------------------------------------------------------------------

Number of tracks:  6
Official DR value: DR11

Samplerate:        44100 Hz
Channels:          2
Bits per sample:   24
Bitrate:           1484 kbps
Codec:             FLAC
================================================================================
Any questions - support@pro-jazz.com. Есть вопросы - support@pro-jazz.com
10:57
202
Нет комментариев. Ваш будет первым!