Вы используете незарегистрированную версию компонента "Вкладки"!

Поиск

2019 Scott Hamilton, Paolo Birro - Pure Imagination {Fone} [DSD64]

2019 Scott Hamilton, Paolo Birro - Pure Imagination {Fone} [DSD64]
Стили:
Издатель (лейбл):
Доп. инфо:

Формат записи/Источник записи: [DSD][OF]
Наличие водяных знаков: Нет
Год издания/переиздания диска: 2019
Жанр: Jazz
Издатель (лейбл): Fone Records
Продолжительность: 01:03:49
Наличие сканов в содержимом раздачи: Буклет PDF

Контейнер: DFF (*.dff)
Тип рипа: tracks
Разрядность: 64(2,8 MHz/1 Bit)
Формат: DSD
Количество каналов: 2.0

Источник (релизер): https://fonerecords.nativedsd.com/albums/SACD205-pure-imagination

Лог проверки качества
foobar2000 1.4.6 / Dynamic Range Meter 1.1.1
log date: 2019-08-04 00:29:49

--------------------------------------------------------------------------------
Analyzed: HAMILTON BIRRO / HAMILTON BIRRO
--------------------------------------------------------------------------------

DR Peak RMS Duration Track
--------------------------------------------------------------------------------
DR13 -7.95 dB -25.27 dB 4:56 01-EXPENSE ACCOUNT
DR13 -8.26 dB -26.51 dB 5:02 02-YOU'RE GONNA HEAR FROM ME
DR13 -8.04 dB -25.73 dB 6:21 03-THAT'S ENTERTAINMENT
DR13 -8.32 dB -26.40 dB 6:02 04-IF I'M LUCKY
DR12 -8.89 dB -26.35 dB 4:58 05-DAY DREAM
DR12 -8.28 dB -24.39 dB 6:52 06-FUNKALLERO
DR14 -6.89 dB -25.36 dB 6:44 07-EASY TO LOVE
DR12 -7.74 dB -25.41 dB 6:50 08-CON ALMA
DR12 -7.82 dB -26.45 dB 4:33 09-PURE IMAGINATION
DR13 -7.24 dB -24.02 dB 6:00 10-ALL GOD-S CHILDREN GOT RHYTHM
DR13 -7.45 dB -27.00 dB 5:38 11-DRINKIN AND DRIVING
--------------------------------------------------------------------------------

Number of tracks: 11
Official DR value: DR13

Samplerate: 2822400 Hz / PCM Samplerate: 88200 Hz
Channels: 2
Bits per sample: 1
Bitrate: 5645 kbps
Codec: DSD64
================================================================================
Any questions - support@pro-jazz.com. Есть вопросы - support@pro-jazz.com
18:38
378
Нет комментариев. Ваш будет первым!