Вы используете незарегистрированную версию компонента "Вкладки"!

Поиск

2017 Fausto Mesolella - Taxidi: Guitar and Loop Pedal {Fone} [DSD64]

2017 Fausto Mesolella - Taxidi: Guitar and Loop Pedal {Fone} [DSD64]
Стили:
Издатель (лейбл):
Доп. инфо:

Формат записи/Источник записи: [SACD-R][OF]
Наличие водяных знаков: Нет
Год издания/переиздания диска: 2017
Жанр: Jazz
Издатель (лейбл): Fonè Records
Продолжительность: 01:12:16
Наличие сканов в содержимом раздачи: Да (сканы)

Контейнер: ISO (*.iso)
Тип рипа: image
Разрядность: 64(2,8 MHz/1 Bit)
Формат: DST64
Количество каналов: 2.0

Источник (релизер): www
https://foneshop.it/en/super-audio-cd/259-ballads-for-audiophiles-sacd.html
http://www.elusivedisc.com/Fausto-Mesolella-Taxidi-Hybrid-Stereo-SACD/productinfo/FONSA172/
https://store.acousticsounds.com/d/129074/Fausto_Mesolella-Taxidi-Hybrid_Stereo_SACD

Лог проверки качества
foobar2000 1.4.6 / Замер динамического диапазона (DR) 1.1.1
Дата отчёта:  2019-08-03 13:38:50

--------------------------------------------------------------------------------
Анализ:   FAUSTO MESOLELLA / TAXIDI
--------------------------------------------------------------------------------

DR         Пики         RMS           Продолжительность трека
--------------------------------------------------------------------------------
DR14      -7.44 дБ   -27.06 дБ     13:34 01-SUITE 3
DR12     -12.12 дБ   -29.84 дБ      6:51 02-SUITE 4
DR13      -7.03 дБ   -28.16 дБ     15:09 03-SUITE 5
DR13      -7.07 дБ   -24.82 дБ     17:37 04-SUITE 1
DR14      -6.54 дБ   -27.24 дБ     19:04 05-SUITE 2
--------------------------------------------------------------------------------

Количество треков: 5
Реальные значения DR: DR13

Частота:   2822400 Гц / Частота PCM: 88200 Гц
Каналов:   2
Разрядность:   1
Битрейт:   5645 кбит/с
Кодек:   DST64
================================================================================
Any questions - support@pro-jazz.com. Есть вопросы - support@pro-jazz.com
18:03
363
Нет комментариев. Ваш будет первым!