Поиск

2019 Lucky Thompson - Night Life {Nagel Heyer} [24-44.1]

2019 Lucky Thompson - Night Life {Nagel Heyer} [24-44.1]
Дата издания диска:
13 сентября 2019
Издатель (лейбл):
Носитель:
WEB
Формат:
PCM
Тип рипа:
tracks
Контейнер:
FLAC (*.flac)
Количество каналов:
2.0
Разрядность/ЧД:
24/44,1
Битрейт аудио:
lossless
Время звучания:
01:41:47
Наличие сканов:
только обложка

Треклист:

01 - I Want a Little Girl 03:40
02 - You've Changed 06:58
03 - Minor Blues 04:21
04 - One O'Clock Jump 08:44
05 - How Long, How Long Blues 04:23
06 - Cherokee 08:20
07 - Up Above My Head 02:55
08 - Yesterdays 07:17
09 - Lucky T 04:48
10 - Strike up the Band 07:51
11 - Satin Doll 11:13
12 - Embassy Boogie 03:14
13 - Paris Blues 07:18
14 - Stompin' at the Savoy 12:48
15 - Sweet Georgia Brown 05:07
16 - Lester Leaps In 02:50

Состав:
  • Lucky Thompson — tenor saxophone
Лог проверки качества
foobar2000 1.4.3 / Dynamic Range Meter 1.1.1
log date: 2021-07-27 23:12:01
--------------------------------------------------------------------------------
Analyzed: Lucky Thompson / Night Life
--------------------------------------------------------------------------------
DR         Peak         RMS     Duration Track
--------------------------------------------------------------------------------
DR12      -1.00 dB   -14.50 dB      3:40 01-I Want a Little Girl
DR12      -1.00 dB   -17.76 dB      6:58 02-You've Changed
DR12      -1.00 dB   -14.39 dB      4:21 03-Minor Blues
DR14      -1.00 dB   -17.06 dB      8:44 04-One O'Clock Jump
DR11      -1.00 dB   -14.11 dB      4:23 05-How Long, How Long Blues
DR11      -1.00 dB   -14.88 dB      8:21 06-Cherokee
DR11      -1.00 dB   -13.31 dB      2:55 07-Up Above My Head
DR15      -1.00 dB   -19.81 dB      7:17 08-Yesterdays
DR11      -1.00 dB   -14.13 dB      4:49 09-Lucky T
DR10      -1.00 dB   -13.46 dB      7:51 10-Strike up the Band
DR14      -1.00 dB   -18.61 dB     11:13 11-Satin Doll
DR11      -1.00 dB   -12.70 dB      3:14 12-Embassy Boogie
DR11      -1.00 dB   -14.35 dB      7:19 13-Paris Blues
DR15      -1.00 dB   -17.67 dB     12:49 14-Stompin' at the Savoy
DR11      -1.00 dB   -13.29 dB      5:07 15-Sweet Georgia Brown
DR12      -1.00 dB   -16.22 dB      2:51 16-Lester Leaps In
--------------------------------------------------------------------------------
Number of tracks:  16
Official DR value: DR12
Samplerate:        44100 Hz
Channels:          2
Bits per sample:   24
Bitrate:           1514 kbps
Codec:             FLAC
================================================================================
20:19
493
Нет комментариев. Ваш будет первым!