Поиск

2016 Lester Young - All That Jazz, Vol. 73: Exercises in Swing {Jube Legends} [24-48]

2016 Lester Young - All That Jazz, Vol. 73: Exercises in Swing {Jube Legends} [24-48]
Дата издания диска:
7 октября 2016
Издатель (лейбл):
Носитель:
WEB
Формат:
PCM
Тип рипа:
tracks
Контейнер:
FLAC (*.flac)
Количество каналов:
2.0
Разрядность/ЧД:
24/48
Битрейт аудио:
lossless
Время звучания:
01:10:29
Наличие сканов:
только обложка
Треклист:

01 - Way Down Yonder in New Orleans - Lester Young; Kansas City Five 02:56
02 - I Want a Little Girl - Lester Young; Kansas City Five 02:51
03 - Countless Blues - Lester Young; Kansas City Five 02:58
04 - Pagin' the Devil - Lester Young; Kansas City Five 02:55
05 - I Know That You Know - Lester Young; Kansas City Five 03:04
06 - Laughing at Life - Lester Young; Kansas City Five 03:04
07 - I Got Rhythm - Lester Young; Kansas City Five 03:16
08 - Three Little Words - Lester Young; Kansas City Five 02:53
09 - Four O'Clock Drag - Lester Young; Kansas City Five 02:49
10 - Jo Jo - Lester Young; Kansas City Five 03:18
11 - Them There Eyes - Lester Young; Kansas City Five 02:57
12 - Good Morning Blues - Lester Young; Kansas City Five 02:50
13 - Circus in Rhythm - Lester Young 02:55
14 - Poor Little Plaything - Earl Warren; Lester Young 02:53
15 - Tush - Lester Young 02:59
16 - These Foolish Things - Lester Young; Billy Butterfield Ensemble 02:54
17 - Exercise in Swing - Lester Young; Billy Butterfield Ensemble 02:59
18 - Salute to Fats - Lester Young; Billy Butterfield Ensemble 03:19
19 - Blue Lester - Lester Young; Count Basie Quintet 03:21
20 - Indiana - Lester Young; Count Basie Quintet 02:52
21 - Jump Lester Jump - Lester Young; Count Basie Quintet 03:16
22 - Ding Dong - Lester Young; Lester Young Sextet 02:24
23 - Blues 'n Bells - Lester Young; Lester Young Sextet 02:10
24 - June Bug - Lester Young; Lester Young Sextet 02:36

Состав:
Лог проверки качества
foobar2000 1.4.6 / Dynamic Range Meter 1.1.1
log date: 2021-07-29 20:51:17
--------------------------------------------------------------------------------
Analyzed: Earl Warren / All That Jazz, Vol. 73: Lester Young "Exercises in Swing" (Remastered 2016) (1)
          Lester Young / All That Jazz, Vol. 73: Lester Young "Exercises in Swing" (Remastered 2016) (2-24)
--------------------------------------------------------------------------------
DR         Peak         RMS     Duration Track
--------------------------------------------------------------------------------
DR11       0.00 dB   -13.43 dB      2:53 14-Poor Little Plaything
DR11       0.00 dB   -16.05 dB      2:56 01-Way Down Yonder in New Orleans
DR13       0.00 dB   -15.55 dB      2:51 02-I Want a Little Girl
DR12       0.00 dB   -14.71 dB      2:58 03-Countless Blues
DR13       0.00 dB   -17.66 dB      2:55 04-Pagin' the Devil
DR12       0.00 dB   -15.39 dB      3:04 05-I Know That You Know
DR12       0.00 dB   -15.92 dB      3:04 06-Laughing at Life
DR12       0.00 dB   -14.41 dB      3:16 07-I Got Rhythm
DR12       0.00 dB   -15.32 dB      2:53 08-Three Little Words
DR12       0.00 dB   -16.06 dB      2:49 09-Four O'Clock Drag
DR12       0.00 dB   -14.34 dB      3:18 10-Jo Jo
DR13       0.00 dB   -15.21 dB      2:57 11-Them There Eyes
DR11       0.00 dB   -14.80 dB      2:50 12-Good Morning Blues
DR9        0.00 dB   -11.58 dB      2:55 13-Circus in Rhythm
DR11       0.00 dB   -12.86 dB      2:59 15-Tush
DR12       0.00 dB   -15.29 dB      2:54 16-These Foolish Things
DR11       0.00 dB   -15.09 dB      2:59 17-Exercise in Swing
DR12       0.00 dB   -16.15 dB      3:19 18-Salute to Fats
DR12       0.00 dB   -14.97 dB      3:21 19-Blue Lester
DR11       0.00 dB   -13.84 dB      2:52 20-Indiana
DR11       0.00 dB   -14.39 dB      3:16 21-Jump Lester Jump
DR11       0.00 dB   -12.35 dB      2:24 22-Ding Dong
DR11       0.00 dB   -13.32 dB      2:10 23-Blues 'n Bells
DR11       0.00 dB   -12.99 dB      2:36 24-June Bug
--------------------------------------------------------------------------------
Number of tracks:  24
Official DR value: DR12
Samplerate:        48000 Hz
Channels:          2
Bits per sample:   24
Bitrate:           763 kbps
Codec:             FLAC
================================================================================
По всем вопросам пишите личное сообщение пользователю M0p94ok.
12:48
193
Нет комментариев. Ваш будет первым!