Вы используете незарегистрированную версию компонента "Вкладки"!

Поиск

2019 Lioness - Pride & Joy {Posi-Tone} [24-88,2]

2019 Lioness - Pride & Joy {Posi-Tone} [24-88,2]
Стили:
Издатель (лейбл):
Битрейт аудио:
lossless
Доп. инфо:

Формат записи/Источник записи: [TR24][OF]
Наличие водяных знаков: Нет
Год издания/переиздания диска: 2019
Издатель (лейбл): Posi-Tone Records
Продолжительность: 56:20
Наличие сканов в содержимом раздачи: Только обложка альбома

Контейнер: FLAC (*.flac)
Тип рипа: tracks
Разрядность: 24/88,2
Формат: PCM
Количество каналов: 2.0

Источник: qobuz.com

Лог проверки качества
foobar2000 1.3.9 / Dynamic Range Meter 1.1.1
log date: 2020-03-18 20:02:50

--------------------------------------------------------------------------------
Analyzed: Lioness / Pride & Joy
--------------------------------------------------------------------------------

DR         Peak         RMS     Duration Track
--------------------------------------------------------------------------------
DR9       -0.98 dB   -12.53 dB      3:55 01-Mad Time
DR8       -0.98 dB   -11.18 dB      4:14 02-Sunny Day Pal
DR8       -0.98 dB   -11.45 dB      2:55 03-Jelly
DR9       -0.98 dB   -11.90 dB      3:09 04-Down For The Count
DR9       -0.98 dB   -11.65 dB      6:50 05-You Don't Say
DR9       -0.98 dB   -12.12 dB      2:15 06-Think
DR10      -0.98 dB   -14.18 dB      4:14 07-Ida Lupino
DR10      -0.98 dB   -14.29 dB      6:07 08-Identity
DR12      -0.98 dB   -15.76 dB      3:59 09-Mocha Spice
DR10      -0.98 dB   -13.57 dB      6:13 10-Hurry Up And Wait
DR8       -0.98 dB   -12.00 dB      5:33 11-Sweety
DR8       -0.98 dB   -11.27 dB      6:58 12-Funky Girl
--------------------------------------------------------------------------------

Number of tracks:  12
Official DR value: DR9

Samplerate:        88200 Hz
Channels:          2
Bits per sample:   24
Bitrate:           2711 kbps
Codec:             FLAC
================================================================================
Any questions - support@pro-jazz.com. Есть вопросы - support@pro-jazz.com
22:52
248
Нет комментариев. Ваш будет первым!