Вы используете незарегистрированную версию компонента "Вкладки"!

Поиск

2019 Diego Rivera - Connections {Posi-Tone} [24-88,2]

2019 Diego Rivera - Connections {Posi-Tone} [24-88,2]
Стили:
Издатель (лейбл):
Битрейт аудио:
lossless
Доп. инфо:

Формат записи/Источник записи: [TR24][OF]
Наличие водяных знаков: Нет
Год издания/переиздания диска: 2019
Издатель (лейбл): Posi-Tone Records
Продолжительность: 51:44
Наличие сканов в содержимом раздачи: Только обложка альбома

Контейнер: FLAC (*.flac)
Тип рипа: tracks
Разрядность: 24/88,2
Формат: PCM
Количество каналов: 2.0

Источник: qobuz.com

Лог проверки качества
foobar2000 1.3.9 / Dynamic Range Meter 1.1.1
log date: 2020-03-18 20:42:43

--------------------------------------------------------------------------------
Analyzed: Diego Rivera / Connections
--------------------------------------------------------------------------------

DR         Peak         RMS     Duration Track
--------------------------------------------------------------------------------
DR10      -0.98 dB   -12.16 dB      4:12 01-Connections
DR11      -0.98 dB   -13.74 dB      4:58 02-Ties That Bind
DR11      -0.98 dB   -13.42 dB      5:18 03-Passion Dance
DR10      -0.98 dB   -12.32 dB      5:03 04-Seiko Time
DR11      -0.98 dB   -13.64 dB      3:23 05-Love (Your Spell Is Everywhere)
DR10      -0.98 dB   -12.04 dB      4:16 06-Nueva York
DR10      -0.98 dB   -13.92 dB      4:07 07-Mother's Nature
DR11      -0.98 dB   -13.31 dB      5:00 08-Naima
DR10      -0.98 dB   -12.99 dB      4:58 09-O Moderno
DR10      -0.98 dB   -12.59 dB      5:58 10-Shade Of The Cedar Tree
DR10      -0.98 dB   -12.16 dB      4:32 11-Changing Directions
--------------------------------------------------------------------------------

Number of tracks:  11
Official DR value: DR10

Samplerate:        88200 Hz
Channels:          2
Bits per sample:   24
Bitrate:           2922 kbps
Codec:             FLAC
================================================================================
Any questions - support@pro-jazz.com. Есть вопросы - support@pro-jazz.com
23:03
250
Нет комментариев. Ваш будет первым!