Поиск

2019 Laurent Coulondre - Michel on My Mind (Tribute to Michel Petrucciani) {New World} [24-88,2]

2019 Laurent Coulondre - Michel on My Mind (Tribute to Michel Petrucciani) {New World} [24-88,2]
Битрейт аудио:
lossless
Треклист:

01. Memories of Paris 03:04
02. Brazilian Like 04:51
03. She Did It Again 02:45
04. Michel on My Mind 04:23
05. Les Grelots 04:05
06. Looking Up 04:30
07. Bite 04:02
08. Guadeloupe 03:55
09. Rachid 03:28
10. Colors 05:14
11. Little Peace in C 03:04
12. Hidden Joy 01:24
13. September Second 03:46
14. Choriniño 04:46

Состав:
  • Laurent Coulondre — piano
  • Jeremy Bruyère — bass
  • André Ceccarelli — drums
Доп. инфо:

Формат записи/Источник записи: [TR24][OF]
Наличие водяных знаков: Нет
Год издания/переиздания диска: 2019
Издатель (лейбл): New World Production
Продолжительность: 00:53:23
Наличие сканов в содержимом раздачи: Буклет PDF

Контейнер: FLAC (*.flac)
Тип рипа: tracks
Разрядность: 24/88,2
Формат: PCM
Количество каналов: 2.0

Источник (релизер): qobuz.com

Лог проверки качества
foobar2000 1.4.6 / Замер динамического диапазона (DR) 1.1.1
Дата отчёта:  2020-07-01 06:08:08

--------------------------------------------------------------------------------
Анализ:   Laurent Coulondre / Michel on My Mind (Tribute to Michel Petrucciani)
--------------------------------------------------------------------------------

DR         Пики         RMS           Продолжительность трека
--------------------------------------------------------------------------------
DR9       -0.06 дБ   -13.49 дБ      3:04 01-Memories of Paris
DR9       -0.06 дБ   -12.80 дБ      4:52 02-Brazilian Like
DR10      -0.06 дБ   -12.18 дБ      2:45 03-She Did It Again
DR11      -0.06 дБ   -14.18 дБ      4:24 04-Michel on My Mind
DR10      -0.06 дБ   -12.65 дБ      4:05 05-Les Grelots
DR11      -0.06 дБ   -12.72 дБ      4:30 06-Looking Up
DR11      -0.06 дБ   -12.54 дБ      4:02 07-Bite
DR13      -0.06 дБ   -16.06 дБ      3:56 08-Guadeloupe
DR11      -0.21 дБ   -14.43 дБ      3:29 09-Rachid
DR11      -0.06 дБ   -12.71 дБ      5:14 10-Colors
DR11      -0.06 дБ   -13.03 дБ      3:05 11-Little Peace in C
DR10      -0.23 дБ   -16.32 дБ      1:24 12-Hidden Joy
DR11      -0.06 дБ   -13.21 дБ      3:47 13-September Second
DR11      -0.06 дБ   -12.77 дБ      4:46 14-Choriniño
--------------------------------------------------------------------------------

Количество треков: 14
Реальные значения DR: DR11

Частота:   88200 Гц
Каналов:   2
Разрядность:   24
Битрейт:   2596 кбит/с
Кодек:   FLAC
================================================================================
По всем вопросам пишите личное сообщение пользователю M0p94ok.
08:48
433
Нет комментариев. Ваш будет первым!