Вы используете незарегистрированную версию компонента "Вкладки"!

Поиск

1956-1962 Ahmad Jamal Trio - Complete Argo Sessions Vol.7 (2018) {Crazy Warthog} [24-44,1]

1956-1962 Ahmad Jamal Trio - Complete Argo Sessions Vol.7 (2018) {Crazy Warthog} [24-44,1]
Стили:
Битрейт аудио:
lossless
Доп. инфо:

Формат записи/Источник записи: [TR24][OF]
Издание: Remastered
Год издания/переиздания диска: 2018
Издатель (лейбл): Crazy Warthog Media
Продолжительность: 01:05:37
Наличие сканов в содержимом раздачи: Нет

Контейнер: FLAC (*.flac)
Тип рипа: tracks
Разрядность: 24/44,1
Количество каналов: 2.0

Источник (релизер): Qobuz

Лог проверки качества
foobar2000 1.3.7 / Dynamic Range Meter 1.1.1
log date: 2019-07-02 05:05:37

--------------------------------------------------------------------------------
Analyzed: Ahmad Jamal / Complete Ahmad Jamal Trio Argo Sessions Vol.7 1956-1962
--------------------------------------------------------------------------------

DR         Peak         RMS     Duration Track
--------------------------------------------------------------------------------
DR14       0.00 dB   -19.14 dB      6:20 01-Time on My Hands
DR14      -0.02 dB   -18.29 dB      4:16 02-Angel Eyes
DR16      -0.06 dB   -20.06 dB     11:01 03-You Go to My Head
DR17      -0.45 dB   -21.08 dB      5:57 04-Star Eyes
DR15       0.00 dB   -18.25 dB      5:02 05-All of You
DR16      -0.47 dB   -23.55 dB      3:30 06-You're Blase
DR15      -1.34 dB   -21.64 dB      6:12 07-What Is This Thing Called Love
DR13       0.00 dB   -16.99 dB      9:33 08-Poinciana
DR15      -0.44 dB   -21.70 dB      5:08 09-We Kiss in a Shadow
DR15      -0.36 dB   -20.30 dB      5:34 10-Stella by Starlight
DR14       0.00 dB   -18.24 dB      3:09 11-The Lady Is a Tramp
--------------------------------------------------------------------------------

Number of tracks:  11
Official DR value: DR15

Samplerate:        44100 Hz
Channels:          2
Bits per sample:   24
Bitrate:           1403 kbps
Codec:             FLAC
================================================================================
Any questions - support@pro-jazz.com. Есть вопросы - support@pro-jazz.com
08:59
246
Нет комментариев. Ваш будет первым!