Поиск

2019 Kenny Davern - Kenny Davern Live {Jazzology} [24-44,1]

2019 Kenny Davern - Kenny Davern Live {Jazzology} [24-44,1]
Стили:
Дата издания диска:
27 июня 2019
Издатель (лейбл):
Битрейт аудио:
lossless

Треклист:

01 - Royal Garden Blues 6:42
02 - Them There Eyes 3:13
03 - I Want a Little Girl 5:07
04 - Rosetta 8:21
05 - If I Could Be with You for One Hour Tonight 5:20
06 - Love Lies 3:14
07 - Wrap Your Troubles in Dreams 4:13
08 - Ol' Miss 8:58

Доп. инфо:

Формат записи/Источник записи: [TR24][OF]
Издание: Remastered
Год издания/переиздания диска: 2019
Продолжительность: 00:45:08
Наличие сканов в содержимом раздачи: Нет
Контейнер: FLAC (*.flac)
Тип рипа: tracks
Разрядность: 24/44,1
Количество каналов: 2.0

Источник (релизер): PROSTUDIOMASTERS

Лог проверки качества
foobar2000 1.4.3 / Dynamic Range Meter 1.1.1
log date: 2020-09-23 20:55:38

--------------------------------------------------------------------------------
Analyzed: Kenny Davern / Kenny Davern Live
--------------------------------------------------------------------------------

DR         Peak         RMS     Duration Track
--------------------------------------------------------------------------------
DR16      -0.19 dB   -18.92 dB      6:42 01-Royal Garden Blues (Live)
DR15      -0.20 dB   -18.58 dB      3:14 02-Them There Eyes (Live)
DR14      -0.20 dB   -19.58 dB      5:08 03-I Want a Little Girl (Live)
DR16      -0.20 dB   -20.02 dB      8:21 04-Rosetta (Live)
DR15      -0.19 dB   -19.23 dB      5:20 05-If I Could Be with You for One Hour Tonight (Live)
DR16      -0.28 dB   -18.63 dB      3:15 06-Love Lies (Live)
DR19      -0.20 dB   -23.86 dB      4:14 07-Wrap Your Troubles in Dreams (Live)
DR16      -0.18 dB   -19.45 dB      8:58 08-Ol' Miss (Live)
--------------------------------------------------------------------------------

Number of tracks:  8
Official DR value: DR16

Samplerate:        44100 Hz
Channels:          2
Bits per sample:   24
Bitrate:           1517 kbps
Codec:             FLAC
================================================================================
Приватный:
Нет (DHT включён)
Размер:
488.19 Мб (511,907,109 байт) » файлов: 13
Участники:
0 раздают, 0 качают (0 участников всего)
Внешние участники:
8 раздают, 1 качают (9 участников всего) [ Обновить ]
No seeders - write a personal message to user M0p94ok. Нет сидеров - пишите личное сообщение пользователю M0p94ok.
02:42
17
Нет комментариев. Ваш будет первым!