Поиск

1993 Marion Brown Quintet - Offering (2017) {Venus VHGD-262} [24-88,2]

1993 Marion Brown Quintet - Offering (2017) {Venus VHGD-262} [24-88,2]
Дата записи диска:
7 октября 1992
Место записи:
Sear Sound Studio, New York City, NY, USA
Дата издания диска:
1993
Дата переиздания диска:
2017
Издатель (лейбл):
Носитель:
WEB
Формат:
PCM
Тип рипа:
tracks
Количество каналов:
2.0
Разрядность/ЧД:
24/88,2
Битрейт аудио:
lossless
Время звучания:
00:44:19
Наличие сканов:
web
Наличие водяных знаков:
нет
Страна-производитель диска (релиза):
USA
Релизёр (источник):
M0p94ok

Треклист:

1. Terra  09:53
2. Self Portrait in Three Colors  04:15
3. Ode to Coltrane  05:21
4. Sly Entrance  03:47
5. Golden Lady in the Graham Cracker Window  06:22
6. Berkshire Blues  07:47
7. After the Rain  07:00

Лог проверки качества
foobar2000 1.5.5 / Dynamic Range Meter 1.1.1
log date: 2020-11-18 01:48:57

--------------------------------------------------------------------------------
Analyzed: Marion Brown Quintet / Offering
--------------------------------------------------------------------------------

DR         Peak         RMS     Duration Track
--------------------------------------------------------------------------------
DR8       -0.98 dB   -12.17 dB      9:53 01-Terra
DR10       0.00 dB   -13.35 dB      4:15 02-Self Portrait In Three Colors
DR9       -0.45 dB   -11.71 dB      5:21 03-Ode To Coltrane
DR7       -3.22 dB   -11.93 dB      3:47 04-Sly Entrance
DR12       0.00 dB   -16.18 dB      6:22 05-Golden Lady In The Graham Cracker Window
DR9        0.00 dB   -11.82 dB      7:47 06-Berkshire Blues
DR9       -0.35 dB   -12.17 dB      7:01 07-After The Rain
--------------------------------------------------------------------------------

Number of tracks:  7
Official DR value: DR9

Samplerate:        88200 Hz
Channels:          2
Bits per sample:   24
Bitrate:           2465 kbps
Codec:             FLAC
================================================================================
Приватный:
Да (DHT отключён)
Размер:
767.46 Мб (804,742,627 байт) » файлов: 10
Участники:
1 раздают, 0 качают (1 участников всего)
Внешние участники:
--- [ Обновить ]
No seeders - write a personal message to user M0p94ok. Нет сидеров - пишите личное сообщение пользователю M0p94ok.
03:05
17
Нет комментариев. Ваш будет первым!