Вы используете незарегистрированную версию компонента "Вкладки"!

Поиск

2019 Josh Nelson, Alex Frank, Ryan Shaw - The L.A. Network: Dave Brubeck Redux {2xHD} [24-192]

2019 Josh Nelson, Alex Frank, Ryan Shaw - The L.A. Network: Dave Brubeck Redux {2xHD} [24-192]
Стили:
Доп. инфо:

Формат записи/Источник записи: [TR24][OF]
Наличие водяных знаков: Нет
Издание: Remastered
Год издания/переиздания диска: 2019
Издатель (лейбл): 2xHD
Продолжительность: 35:55
Наличие сканов в содержимом раздачи: Буклет PDF

Контейнер: FLAC (*.flac)
Тип рипа: tracks
Разрядность: 24/192
Формат: PCM
Количество каналов: 2.0

Источник: prostudiomasters.com

Лог проверки качества
foobar2000 1.3.9 / Dynamic Range Meter 1.1.1
log date: 2019-12-12 01:03:22

--------------------------------------------------------------------------------
Analyzed: Josh Nelson, Alex Frank, Ryan Shaw / The L.A. Network: Dave Brubeck Redux
--------------------------------------------------------------------------------

DR         Peak         RMS     Duration Track
--------------------------------------------------------------------------------
DR12      -1.42 dB   -16.01 dB      4:58 01-It's A Raggy Waltz
DR12      -1.10 dB   -16.37 dB      5:15 02-Take 5
DR14      -2.47 dB   -20.86 dB      5:00 03-In Your Own Sweet Way
DR14      -0.15 dB   -18.48 dB      6:06 04-The Duke
DR13      -0.93 dB   -17.29 dB      5:51 05-Blue Rondo A La Turk
DR13      -2.64 dB   -20.95 dB      4:33 06-Strange Meadowlark
DR14      -5.74 dB   -23.71 dB      4:11 07-Blue Shadows In The Street
--------------------------------------------------------------------------------

Number of tracks:  7
Official DR value: DR13

Samplerate:        192000 Hz
Channels:          2
Bits per sample:   24
Bitrate:           9232 kbps
Codec:             FLAC
================================================================================
Any questions - support@pro-jazz.com. Есть вопросы - support@pro-jazz.com
12:24
297
Нет комментариев. Ваш будет первым!