Вы используете незарегистрированную версию компонента "Вкладки"!

Поиск

1996 Bob James & Kirk Whalum - Joined At The Hip (2019) {evosound} [24-44,1]

1996 Bob James & Kirk Whalum - Joined At The Hip (2019) {evosound} [24-44,1]
Доп. инфо:

Формат записи/Источник записи: [TR24][OF]
Наличие водяных знаков: Нет
Год издания: 2019
Издатель (лейбл): evosound
Продолжительность: 01:22:37
Наличие сканов в содержимом раздачи: Только обложка альбома
Контейнер: FLAC (*.flac)
Тип рипа: tracks
Разрядность: 24/44.1
Формат: PCM
Количество каналов: 2.0
Источник (релизер): highresaudio.com

Лог проверки качества
foobar2000 1.4.8 / Dynamic Range Meter 1.1.1
log date: 2019-12-11 22:46:37

--------------------------------------------------------------------------------
Analyzed: Bob James & Kirk Whalum / Joined At The Hip (2019 Remastered)
--------------------------------------------------------------------------------

DR         Peak         RMS     Duration Track
--------------------------------------------------------------------------------
DR10       0.00 dB   -13.33 dB     10:02 01-Soweto (2019 Remastered)
DR11      -0.14 dB   -14.53 dB      6:01 02-Kickin' Back (2019 Remastered)
DR11      -0.81 dB   -14.13 dB      5:16 03-Out Of The Cold (2019 Remastered)
DR10      -0.22 dB   -12.29 dB      8:14 04-Deja Blue (2019 Remastered)
DR10      -1.07 dB   -13.53 dB      5:47 05-Midnight at the Oasis (2019 Remastered)
DR11      -0.06 dB   -16.36 dB      7:15 06-Tell Me Something Nice (2019 Remastered)
DR12       0.00 dB   -14.84 dB      6:36 07-Tour de Fourths (2019 Remastered)
DR12       0.00 dB   -14.83 dB      5:14 08-The Ghetto (2019 Remastered)
DR12      -0.11 dB   -15.05 dB      8:32 09-The Prayer (2019 Remastered)
DR12      -0.68 dB   -13.83 dB      7:20 10-Out Of The Cold (Original Full Version) (2019 Remastered)
DR11      -0.04 dB   -13.43 dB     12:13 11-Deja Blue (Original Full Version) (2019 Remastered)
--------------------------------------------------------------------------------

Number of tracks:  11
Official DR value: DR11
Samplerate:        44100 Hz
Channels:          2
Bits per sample:   24
Bitrate:           1521 kbps
Codec:             FLAC
================================================================================
Any questions - support@pro-jazz.com. Есть вопросы - support@pro-jazz.com
10:24
268
Нет комментариев. Ваш будет первым!