Поиск

2019 Jaimie Branch - Fly or Die II: Bird Dogs of Paradise {International Anthem} [24-96]

2019 Jaimie Branch - Fly or Die II: Bird Dogs of Paradise {International Anthem} [24-96]
Стили:
Дата записи диска:
20 ноября - 25 ноября 2018
Место записи:
Total Refreshment Centre, London, UK; Café OTO, Dalston, London UK
Дата издания диска:
11 октября 2019
Носитель:
WEB
Формат:
PCM
Тип рипа:
tracks
Контейнер:
FLAC (*.flac)
Количество каналов:
2.0
Разрядность/ЧД:
24/96
Битрейт аудио:
lossless
Время звучания:
00:44:56
Наличие сканов:
только обложка

Треклист:

01 - birds of paradise (00:03:57)
02 - prayer for amerikkka pt. 1 & 2 (00:11:26)
03 - lesterlude (00:00:40)
04 - twenty-three n me, jupiter redux (00:03:43)
05 - whales (00:01:04)
06 - simple silver surfer (00:05:39)
07 - bird dogs of paradise (00:04:04)
08 - nuevo roquero estereo (00:08:13)
09 - love song (00:06:07)

Состав:
  • Jason Ajemian    Composer, Double Bass, Percussion, Vocals
  • David Allen    Engineer, Executive Producer, Mixing
  • Dan Bitney    Percussion, Synthesizer
  • Jaimie Branch    Bells, Composer, Cover Art, Cover Design, Editing, Sound Effects, Synthesizer, Trumpet, Voices, Whistle
  • James Dunn    Assistant Engineer
  • Ben LaMar Gay    Voices
  • Lester St. Louis    Cello, Composer, Percussion
  • Scott McNiece    Executive Producer, Ganza
  • Kristian Robinson    Assistant Engineer
  • Matt Schneider    Guitar (12 String)
  • Shelly Steffens    Mastering
  • Marvin Tate    Voices
  • Chad Taylor    Composer, Drums, Mbiri, Xylophone
  • Dave Vettraino    Editing, Engineer, Mixing
Лог проверки качества
foobar2000 1.4.2 / Dynamic Range Meter 1.1.1
log date: 2021-07-08 09:35:49

--------------------------------------------------------------------------------
Analyzed: Jaimie Branch / Fly or Die II: Bird Dogs of Paradise
--------------------------------------------------------------------------------

DR         Peak         RMS     Duration Track
--------------------------------------------------------------------------------
DR12      -0.44 dB   -20.49 dB      3:57 01-birds of paradise
DR9       -0.41 dB   -11.93 dB     11:26 02-prayer for amerikkka pt. 1 & 2
DR8       -3.23 dB   -15.94 dB      0:40 03-lesterlude
DR7       -0.41 dB   -10.29 dB      3:43 04-twenty-three n me, jupiter redux
DR14      -4.53 dB   -23.33 dB      1:05 05-whales
DR10      -0.41 dB   -12.11 dB      5:39 06-simple silver surfer
DR8       -0.41 dB   -11.25 dB      4:05 07-bird dogs of paradise
DR9       -0.41 dB   -11.06 dB      8:14 08-nuevo roquero estГ©reo
DR11      -0.41 dB   -15.23 dB      6:07 09-love song
--------------------------------------------------------------------------------

Number of tracks:  9
Official DR value: DR10

Samplerate:        96000 Hz
Channels:          2
Bits per sample:   24
Bitrate:           2507 kbps
Codec:             FLAC
================================================================================
По всем вопросам пишите личное сообщение пользователю M0p94ok.
19:54
235
Нет комментариев. Ваш будет первым!