Поиск

2008 Francesco Cafiso - Portrait In Black and White (2018) {Venus VHGD-270} [DSD64 ISO]

2008 Francesco Cafiso - Portrait In Black and White (2018) {Venus VHGD-270} [DSD64 ISO]
Дата записи диска:
4 января - 5 января 2008
Место записи:
The House Recording Studio, Rome, Italy
Дата издания диска:
15 октября 2008
Издатель (лейбл):
Номер по каталогу:
VHGD-270
Носитель:
SACD
Формат:
DSD
Тип рипа:
image
Контейнер:
ISO (*.iso)
Количество каналов:
2.0
Разрядность/ЧД:
64 (2,8 MHz/1 Bit)
Битрейт аудио:
lossless
Время звучания:
01:06:23
Наличие сканов:
да

Треклист:

1. Woodin' You  06:17
2. Night Mist  07:20
3. Waltz for Ruth  07:44
4. Detour Ahead  08:37
5. Wrong Together  05:59
6. Sail Away  09:38
7. Portrait in Black and White  15:11
8. You and the Night and the Music  05:34

Состав:
  • Alto Saxophone – Francesco Cafiso
  • Bass – Nello Toscano
  • Engineer – Simone Ciammarughi
  • Ensemble – Francesco Cafiso Sicilian Quartet
  • Mixed By – Shuji Kitamura, Tetsuo Hara
  • Piano – Giovanni Mazzarino
  • Producer – Tetsuo Hara
  • Trumpet – Dino Rubino
Лог проверки качества
foobar2000 1.6.4 / Dynamic Range Meter 1.1.1
log date: 2021-07-08 11:14:28

--------------------------------------------------------------------------------
Analyzed: FRANCESCO CAFISO / Portrait In Black And White
--------------------------------------------------------------------------------

DR         Peak         RMS     Duration Track
--------------------------------------------------------------------------------
DR7       -4.67 dB   -12.85 dB      6:18 01-Woodin' You
DR7       -4.72 dB   -13.74 dB      7:20 02-Night Mist
DR7       -4.78 dB   -14.25 dB      7:44 03-Waltz For Ruth
DR8       -4.81 dB   -16.20 dB      8:37 04-Detour Ahead
DR7       -4.67 dB   -13.37 dB      6:00 05-Wrong Together
DR7       -4.77 dB   -14.25 dB      9:38 06-Sail Away
DR7       -4.65 dB   -14.47 dB     15:11 07-Portrait In Black And White
DR6       -4.72 dB   -11.95 dB      5:34 08-You And The Night And The Music
--------------------------------------------------------------------------------

Number of tracks:  8
Official DR value: DR7

Samplerate:        2822400 Hz / PCM Samplerate: 88200 Hz
Channels:          2
Bits per sample:   1
Bitrate:           5645 kbps
Codec:             DSD64
================================================================================
По всем вопросам пишите личное сообщение пользователю M0p94ok.
15:01
258
Нет комментариев. Ваш будет первым!