Поиск

2019 George Coleman - The Quartet {Smoke Sessions} [24-96]

2019 George Coleman - The Quartet {Smoke Sessions} [24-96]
Стили:
Издатель (лейбл):
Треклист:

1. Paul's Call (6:28)
2. I Wish You Love (6:06)
3. Prelude to a Kiss (8:26)
4. Lollipops and Roses (6:18)
5. East 9th Street Blues (12:06)
6. When I Fall in Love (11:00)
7. Along Came Betty (5:55)
8. You've Changed (10:16)
9. Triste (6:57)

Доп. инфо:

Формат записи/Источник записи: [TR24][OF]
Наличие водяных знаков: Нет
Год издания: 2019
Продолжительность: 01:13:25
Наличие сканов в содержимом раздачи: Только обложка альбома
Контейнер: FLAC (*.flac)
Тип рипа: tracks
Разрядность: 24/96
Формат: PCM
Количество каналов: 2.0
Источник (релизер): qobuz.com

Лог проверки качества
foobar2000 1.4 / Dynamic Range Meter 1.1.1
log date: 2019-09-25 12:43:06

--------------------------------------------------------------------------------
Analyzed: George Coleman / The Quartet
--------------------------------------------------------------------------------

DR         Peak         RMS     Duration Track
--------------------------------------------------------------------------------
DR10      -1.20 dB   -12.49 dB      6:28 01-Paul's Call
DR10      -1.20 dB   -12.66 dB      6:06 02-I Wish You Love
DR9       -1.20 dB   -12.90 dB      8:26 03-Prelude to a Kiss
DR11      -1.20 dB   -13.86 dB      6:18 04-Lollipops and Roses
DR9       -1.20 dB   -11.91 dB     12:06 05-East 9th Street Blues
DR10      -1.20 dB   -13.54 dB     11:00 06-When I Fall in Love
DR9       -1.20 dB   -12.12 dB      5:55 07-Along Came Betty
DR11      -1.20 dB   -14.61 dB     10:16 08-You've Changed
DR11      -1.20 dB   -14.31 dB      6:57 09-Triste
--------------------------------------------------------------------------------

Number of tracks:  9
Official DR value: DR10
Samplerate:        96000 Hz
Channels:          2
Bits per sample:   24
Bitrate:           2838 kbps
Codec:             FLAC
================================================================================
Приватный:
Нет (DHT включён)
Размер:
1.46 Гб (1,567,174,479 байт) » файлов: 11
Участники:
0 раздают, 0 качают (0 участников всего)
Внешние участники:
21 раздают, 7 качают (28 участников всего) [ Обновить ]
Есть вопросы - пишите личное сообщение пользователю M0p94ok.
10:35
28
Нет комментариев. Ваш будет первым!