Вы используете незарегистрированную версию компонента "Вкладки"!

Поиск

2018 Gerald Toto - Sway {Nø Førmat!} [24-44,1]

2018 Gerald Toto - Sway {Nø Førmat!} [24-44,1]
Стили:
Издатель (лейбл):
Доп. инфо:

Формат записи/Источник записи: [TR24][OF]
Наличие водяных знаков: Нет
Год издания/переиздания диска: 2018
Жанр: vocal jazz, world music
Издатель (лейбл): Nø Førmat!
Продолжительность: 00:34:41
Наличие сканов в содержимом раздачи: front+back
Источник (релизер): qobuz
Контейнер: FLAC (*.flac)
Тип рипа: tracks
Разрядность: 24/44,1
Формат: PCM
Количество каналов: 2.0
Доп. информация: https://www.geraldtoto.net/

Лог проверки качества
foobar2000 1.1.15 / Dynamic Range Meter 1.1.1
log date: 2019-09-25 15:54:45

--------------------------------------------------------------------------------
Analyzed: Gerald Toto / Sway
--------------------------------------------------------------------------------

DR         Peak         RMS     Duration Track
--------------------------------------------------------------------------------
DR7       -0.01 dB    -8.00 dB      2:40 01-Alger 69
DR6       -0.01 dB    -7.94 dB      2:59 02-Day By Day
DR7       -0.01 dB    -8.90 dB      2:13 03-My Girlfriend
DR7       -0.01 dB    -8.35 dB      2:55 04-Away Alive
DR8       -0.01 dB   -10.51 dB      3:54 05-Umbaka
DR6       -0.01 dB    -8.22 dB      4:03 06-Sway
DR7       -0.01 dB    -9.09 dB      3:29 07-You Got Me
DR8       -0.01 dB   -10.47 dB      3:28 08-Let It Blow
DR6       -0.01 dB    -7.56 dB      2:13 09-It's A Love Pain
DR7       -0.01 dB    -9.00 dB      3:24 10-The Night Is Coming
DR8       -0.01 dB    -9.70 dB      3:23 11-Dutiful Love
--------------------------------------------------------------------------------

Number of tracks:  11
Official DR value: DR7

Samplerate:        44100 Hz
Channels:          2
Bits per sample:   24
Bitrate:           1506 kbps
Codec:             FLAC
================================================================================
Any questions - support@pro-jazz.com. Есть вопросы - support@pro-jazz.com
17:28
325
Нет комментариев. Ваш будет первым!