Вы используете незарегистрированную версию компонента "Вкладки"!

Поиск

2019 Fabrizio Bosso Spiritual Trio - Someday {Warner Music} [24-96]

2019 Fabrizio Bosso Spiritual Trio - Someday {Warner Music} [24-96]
Стили:
Доп. инфо:

Формат записи/Источник записи: [TR24][OF]
Наличие водяных знаков: Нет
Год издания/переиздания диска: 2019
Издатель (лейбл): WM Italy
Продолжительность: 49:24
Наличие сканов в содержимом раздачи: Только обложка альбома

Контейнер: FLAC (*.flac)
Тип рипа: tracks
Разрядность: 24/96
Формат: PCM
Количество каналов: 2.0

Источник: qobuz.com

Лог проверки качества
foobar2000 1.3.9 / Dynamic Range Meter 1.1.1
log date: 2019-12-10 10:02:08

--------------------------------------------------------------------------------
Analyzed: Fabrizio Bosso Spiritual Trio / Someday
--------------------------------------------------------------------------------

DR         Peak         RMS     Duration Track
--------------------------------------------------------------------------------
DR8       -0.10 dB   -10.93 dB      3:16 01-Cold Duck Time
DR8       -0.10 dB   -10.82 dB      5:11 02-Lawns
DR7       -0.10 dB   -10.49 dB      4:21 03-Someday We All Be Free (feat. Mario Biondi)
DR8       -0.10 dB   -10.15 dB      3:24 04-Forward
DR7       -0.10 dB    -9.52 dB      5:28 05-I Shall Wear A Crown
DR8       -0.10 dB   -11.24 dB      1:50 06-Bernie's Toon
DR6       -0.10 dB    -8.13 dB      1:53 07-A Lullaby
DR6       -0.10 dB    -9.76 dB      6:50 08-Sermonette
DR7       -0.10 dB   -10.28 dB      7:59 09-Bridge Over Troubled Water
DR9       -0.10 dB   -10.26 dB      4:31 10-Say It Loud
DR9       -0.10 dB   -11.27 dB      4:40 11-Someday We All Be Free (Instrumental)
--------------------------------------------------------------------------------

Number of tracks:  11
Official DR value: DR8

Samplerate:        96000 Hz
Channels:          2
Bits per sample:   24
Bitrate:           2796 kbps
Codec:             FLAC
================================================================================
Any questions - support@pro-jazz.com. Есть вопросы - support@pro-jazz.com
01:01
244
Нет комментариев. Ваш будет первым!