Вы используете незарегистрированную версию компонента "Вкладки"!

Поиск

1971 Hideto Kanai Group - Q (2007) {TBM} [DSD64]

1971 Hideto Kanai Group - Q (2007) {TBM} [DSD64]
Доп. инфо:

Формат записи/Источник записи: [SACD-R][OF]
Наличие водяных знаков: Нет
Год издания/переиздания диска: 1971/2007
Продолжительность: 00:41:58
Наличие сканов в содержимом раздачи: Да (сканы)
Контейнер: ISO (*.iso)
Тип рипа: image
Разрядность: 64(2,8 MHz/1 Bit)
Формат: DSD
Количество каналов: 2.0
http://www.cdjapan.co.jp/product/MHCP-10045

Лог проверки качества
foobar2000 1.4.8 / Замер динамического диапазона (DR) 1.1.1
Дата отчёта:  2019-12-16 11:02:23

--------------------------------------------------------------------------------
Анализ:   Kanai,Hideto Group / Q
--------------------------------------------------------------------------------

DR         Пики         RMS           Продолжительность трека
--------------------------------------------------------------------------------
DR12      -4.50 дБ   -19.76 дБ     13:47 01-April Song For Kanai,Zui-Zui-Zui-Du-Tubadaba
DR12      -3.59 дБ   -19.04 дБ     10:02 02-Q
DR13      -5.32 дБ   -23.16 дБ      5:57 03-Kaleidoscope
DR12      -3.50 дБ   -20.43 дБ     12:12 04-Meditation
--------------------------------------------------------------------------------

Количество треков: 4
Реальные значения DR: DR12

Частота:   2822400 Гц / Частота PCM: 88200 Гц
Каналов:   2
Разрядность:   1
Битрейт:   5645 кбит/с
Кодек:   DSD64
================================================================================
Any questions - support@pro-jazz.com. Есть вопросы - support@pro-jazz.com
11:34
299
Нет комментариев. Ваш будет первым!