Поиск

2019 Donald Byrd - Love Has Come Around - Finest Moments {Warner, X5 } [WEB]

2019 Donald Byrd - Love Has Come Around - Finest Moments {Warner, X5 } [WEB]
Издатель (лейбл):
Номер по каталогу:
X5 Music Group
Носитель:
WEB
Тип рипа:
tracks
Аудиокодек:
FLAC (*.flac)
Битрейт аудио:
lossless
Время звучания:
02:08:00
Наличие сканов:
только обложка

Треклист:

01 - Love Has Come Around [07:52:65]
02 - I Feel Like Loving You Today [06:55:11]
03 - Cristo Redentor [04:42:65]
04 - Thank You for Funking up My Life [04:11:15]
05 - Loving You [04:38:29]
06 - Sexy Dancer (12' Version) [05:11:41]
07 - Butterfly [06:05:27]
08 - High Energy (12' Version) [05:47:64]
09 - I Love Your Love [06:59:19]
10 - Morning [04:06:60]
11 - Love for Sale [06:06:64]
12 - Forbidden Love (12' Version) [05:24:43]
13 - Pretty Baby [05:06:13]
14 - Your Love Is My Ecstacy [04:57:70]
15 - Close Your Eyes and Look Within [05:12:42]
16 - Sunning In Your Love Shine [05:35:15]
17 - Marilyn [04:00:02]
18 - Midnight (12' Version) [05:07:46]
19 - Falling [03:01:14]
20 - I'm Coming Home (12' Version) [04:14:09]
21 - I'll Always Love You [05:13:55]
22 - Veronica [04:27:55]
23 - People Suppose to Be Free [04:48:05]
24 - Have You Heard the News [04:39:38]
25 - So Much In Love (12' Version) [04:00:35]

Доп. инфо:
 
DRM.log

foobar2000 1.4.3 / Dynamic Range Meter 1.1.1
log date: 2019-05-08 21:48:32

--------------------------------------------------------------------------------
Analyzed: Donald Byrd / Love Has Come Around - Finest Moments
--------------------------------------------------------------------------------

DR         Peak         RMS     Duration Track
--------------------------------------------------------------------------------
DR11      -0.31 dB   -13.14 dB      7:53 01-Love Has Come Around
DR10       0.00 dB   -11.71 dB      6:55 02-I Feel Like Loving You Today
DR14      -0.36 dB   -17.09 dB      4:43 03-Cristo Redentor
DR16       0.00 dB   -17.67 dB      4:11 04-Thank You for Funking up My Life
DR10       0.00 dB   -11.61 dB      4:38 05-Loving You
DR11      -0.31 dB   -13.56 dB      5:12 06-Sexy Dancer (12" Version)
DR10      -0.31 dB   -12.03 dB      6:05 07-Butterfly
DR10      -0.32 dB   -12.20 dB      5:48 08-High Energy (12" Version)
DR10      -0.31 dB   -12.88 dB      6:59 09-I Love Your Love
DR13      -0.50 dB   -15.05 dB      4:07 10-Morning
DR11      -0.31 dB   -13.06 dB      6:07 11-Love for Sale
DR11      -0.40 dB   -13.75 dB      5:25 12-Forbidden Love (12" Version)
DR12      -0.50 dB   -14.47 dB      5:06 13-Pretty Baby
DR9        0.00 dB   -10.90 dB      4:58 14-Your Love Is My Ecstacy
DR15      -0.22 dB   -17.24 dB      5:13 15-Close Your Eyes and Look Within
DR14      -0.22 dB   -16.94 dB      5:35 16-Sunning In Your Love Shine
DR12      -0.54 dB   -17.26 dB      4:00 17-Marilyn
DR10      -0.31 dB   -12.44 dB      5:08 18-Midnight (12" Version)
DR11      -0.42 dB   -15.46 dB      3:01 19-Falling
DR10      -0.31 dB   -12.25 dB      4:14 20-I'm Coming Home (12" Version)
DR11      -0.35 dB   -15.63 dB      5:14 21-I'll Always Love You
DR14      -0.50 dB   -16.59 dB      4:28 22-Veronica
DR12      -0.50 dB   -15.35 dB      4:48 23-People Suppose to Be Free
DR15      -0.22 dB   -17.03 dB      4:40 24-Have You Heard the News
DR9       -0.34 dB   -11.49 dB      4:00 25-So Much In Love (12" Version)
--------------------------------------------------------------------------------

Number of tracks:  25
Official DR value: DR12

Samplerate:        44100 Hz
Channels:          2
Bits per sample:   16
Bitrate:           967 kbps
Codec:             FLAC
================================================================================

Содержание индексной карты (.CUE)
REM GENRE Jazz;Soul & Funk
REM DATE 01-03-2019
PERFORMER "Donald Byrd"
TITLE "Love Has Come Around - Finest Moments"
FILE "1. Donald Byrd - Love Has Come Around.flac" WAVE
  TRACK 01 AUDIO
    TITLE "Love Has Come Around"
    PERFORMER "Donald Byrd"
    ISRC USEE10609292
    INDEX 01 00:00:00
FILE "2. Donald Byrd - I Feel Like Loving You Today.flac" WAVE
  TRACK 02 AUDIO
    TITLE "I Feel Like Loving You Today"
    PERFORMER "Donald Byrd"
    ISRC USEE10609294
    INDEX 01 00:00:00
FILE "3. Donald Byrd - Cristo Redentor.flac" WAVE
  TRACK 03 AUDIO
    TITLE "Cristo Redentor"
    PERFORMER "Donald Byrd"
    ISRC USEE10183560
    INDEX 01 00:00:00
FILE "4. Donald Byrd - Thank You for Funking up My Life.flac" WAVE
  TRACK 04 AUDIO
    TITLE "Thank You for Funking up My Life"
    PERFORMER "Donald Byrd"
    ISRC USEE10183553
    INDEX 01 00:00:00
FILE "5. Donald Byrd - Loving You.flac" WAVE
  TRACK 05 AUDIO
    TITLE "Loving You"
    PERFORMER "Donald Byrd"
    ISRC USEE10183557
    INDEX 01 00:00:00
FILE "6. Donald Byrd - Sexy Dancer (12_ Version).flac" WAVE
  TRACK 06 AUDIO
    TITLE "Sexy Dancer (12' Version)"
    PERFORMER "Donald Byrd"
    ISRC USEE10301056
    INDEX 01 00:00:00
FILE "7. Donald Byrd - Butterfly.flac" WAVE
  TRACK 07 AUDIO
    TITLE "Butterfly"
    PERFORMER "Donald Byrd"
    ISRC USEE10609293
    INDEX 01 00:00:00
FILE "8. Donald Byrd - High Energy (12_ Version).flac" WAVE
  TRACK 08 AUDIO
    TITLE "High Energy (12' Version)"
    PERFORMER "Donald Byrd"
    ISRC USEE10609491
    INDEX 01 00:00:00
FILE "9. Donald Byrd - I Love Your Love.flac" WAVE
  TRACK 09 AUDIO
    TITLE "I Love Your Love"
    PERFORMER "Donald Byrd"
    ISRC USEE10609295
    INDEX 01 00:00:00
FILE "10. Donald Byrd - Morning.flac" WAVE
  TRACK 10 AUDIO
    TITLE "Morning"
    PERFORMER "Donald Byrd"
    ISRC USEE10250141
    INDEX 01 00:00:00
FILE "11. Donald Byrd - Love for Sale.flac" WAVE
  TRACK 11 AUDIO
    TITLE "Love for Sale"
    PERFORMER "Donald Byrd"
    ISRC USEE10609297
    INDEX 01 00:00:00
FILE "12. Donald Byrd - Forbidden Love (12_ Version).flac" WAVE
  TRACK 12 AUDIO
    TITLE "Forbidden Love (12' Version)"
    PERFORMER "Donald Byrd"
    ISRC USEE10609494
    INDEX 01 00:00:00
FILE "13. Donald Byrd - Pretty Baby.flac" WAVE
  TRACK 13 AUDIO
    TITLE "Pretty Baby"
    PERFORMER "Donald Byrd"
    ISRC USEE10250135
    INDEX 01 00:00:00
FILE "14. Donald Byrd - Your Love Is My Ecstacy.flac" WAVE
  TRACK 14 AUDIO
    TITLE "Your Love Is My Ecstacy"
    PERFORMER "Donald Byrd"
    ISRC USEE10183556
    INDEX 01 00:00:00
FILE "15. Donald Byrd - Close Your Eyes and Look Within.flac" WAVE
  TRACK 15 AUDIO
    TITLE "Close Your Eyes and Look Within"
    PERFORMER "Donald Byrd"
    ISRC USEE10183561
    INDEX 01 00:00:00
FILE "16. Donald Byrd - Sunning In Your Love Shine.flac" WAVE
  TRACK 16 AUDIO
    TITLE "Sunning In Your Love Shine"
    PERFORMER "Donald Byrd"
    ISRC USEE10183555
    INDEX 01 00:00:00
FILE "17. Donald Byrd - Marilyn.flac" WAVE
  TRACK 17 AUDIO
    TITLE "Marilyn"
    PERFORMER "Donald Byrd"
    ISRC USEE10250138
    INDEX 01 00:00:00
FILE "18. Donald Byrd - Midnight (12_ Version).flac" WAVE
  TRACK 18 AUDIO
    TITLE "Midnight (12' Version)"
    PERFORMER "Donald Byrd"
    ISRC USEE10609489
    INDEX 01 00:00:00
FILE "19. Donald Byrd - Falling.flac" WAVE
  TRACK 19 AUDIO
    TITLE "Falling"
    PERFORMER "Donald Byrd"
    ISRC USEE10609298
    INDEX 01 00:00:00
FILE "20. Donald Byrd - I'm Coming Home (12_ Version).flac" WAVE
  TRACK 20 AUDIO
    TITLE "I'm Coming Home (12' Version)"
    PERFORMER "Donald Byrd"
    ISRC USEE10609493
    INDEX 01 00:00:00
FILE "21. Donald Byrd - I'll Always Love You.flac" WAVE
  TRACK 21 AUDIO
    TITLE "I'll Always Love You"
    PERFORMER "Donald Byrd"
    ISRC USEE10609296
    INDEX 01 00:00:00
FILE "22. Donald Byrd - Veronica.flac" WAVE
  TRACK 22 AUDIO
    TITLE "Veronica"
    PERFORMER "Donald Byrd"
    ISRC USEE10250140
    INDEX 01 00:00:00
FILE "23. Donald Byrd - People Suppose to Be Free.flac" WAVE
  TRACK 23 AUDIO
    TITLE "People Suppose to Be Free"
    PERFORMER "Donald Byrd"
    ISRC USEE10250139
    INDEX 01 00:00:00
FILE "24. Donald Byrd - Have You Heard the News.flac" WAVE
  TRACK 24 AUDIO
    TITLE "Have You Heard the News"
    PERFORMER "Donald Byrd"
    ISRC USEE10183558
    INDEX 01 00:00:00
FILE "25. Donald Byrd - So Much In Love (12_ Version).flac" WAVE
  TRACK 25 AUDIO
    TITLE "So Much In Love (12' Version)"
    PERFORMER "Donald Byrd"
    ISRC USEE10609490
    INDEX 01 00:00:00
Лог проверки качества
CUE Corrector v. 8.3.5 / b. 913 (Apr. 22, 2019)
————————————————————————————————————————————————————————————————————————
Donald Byrd / Love Has Come Around - Finest Moments

CUE file: Love Has Come Around - Finest Moments.cue
Audio files:
    1. Donald Byrd - Love Has Come Around.flac [07:52.867; FLAC • 962 kbps • 16 bit \ 44100 Hz • stereo; 54.25 MB (56 884 918 B)]
    2. Donald Byrd - I Feel Like Loving You Today.flac [06:55.147; FLAC • 1005 kbps • 16 bit \ 44100 Hz • stereo; 49.75 MB (52 166 110 B)]
    3. Donald Byrd - Cristo Redentor.flac [04:42.867; FLAC • 858 kbps • 16 bit \ 44100 Hz • stereo; 28.94 MB (30 349 393 B)]
    4. Donald Byrd - Thank You for Funking up My Life.flac [04:11.200; FLAC • 948 kbps • 16 bit \ 44100 Hz • stereo; 28.40 MB (29 784 127 B)]
    5. Donald Byrd - Loving You.flac [04:38.387; FLAC • 1091 kbps • 16 bit \ 44100 Hz • stereo; 36.21 MB (37 969 083 B)]
    6. Donald Byrd - Sexy Dancer (12_ Version).flac [05:11.547; FLAC • 985 kbps • 16 bit \ 44100 Hz • stereo; 36.61 MB (38 389 381 B)]
    7. Donald Byrd - Butterfly.flac [06:05.360; FLAC • 996 kbps • 16 bit \ 44100 Hz • stereo; 43.39 MB (45 494 846 B)]
    8. Donald Byrd - High Energy (12_ Version).flac [05:47.853; FLAC • 1021 kbps • 16 bit \ 44100 Hz • stereo; 42.36 MB (44 412 814 B)]
    9. Donald Byrd - I Love Your Love.flac [06:59.253; FLAC • 1000 kbps • 16 bit \ 44100 Hz • stereo; 49.98 MB (52 412 035 B)]
    10. Donald Byrd - Morning.flac [04:06.800; FLAC • 884 kbps • 16 bit \ 44100 Hz • stereo; 26.02 MB (27 279 875 B)]
    11. Donald Byrd - Love for Sale.flac [06:06.853; FLAC • 1003 kbps • 16 bit \ 44100 Hz • stereo; 43.88 MB (46 008 719 B)]
    12. Donald Byrd - Forbidden Love (12_ Version).flac [05:24.573; FLAC • 949 kbps • 16 bit \ 44100 Hz • stereo; 36.73 MB (38 512 341 B)]
    13. Donald Byrd - Pretty Baby.flac [05:06.173; FLAC • 944 kbps • 16 bit \ 44100 Hz • stereo; 34.47 MB (36 145 615 B)]
    14. Donald Byrd - Your Love Is My Ecstacy.flac [04:57.933; FLAC • 1076 kbps • 16 bit \ 44100 Hz • stereo; 38.25 MB (40 108 683 B)]
    15. Donald Byrd - Close Your Eyes and Look Within.flac [05:12.560; FLAC • 969 kbps • 16 bit \ 44100 Hz • stereo; 36.14 MB (37 895 179 B)]
    16. Donald Byrd - Sunning In Your Love Shine.flac [05:35.200; FLAC • 968 kbps • 16 bit \ 44100 Hz • stereo; 38.69 MB (40 565 564 B)]
    17. Donald Byrd - Marilyn.flac [04:00.027; FLAC • 670 kbps • 16 bit \ 44100 Hz • stereo; 19.20 MB (20 130 656 B)]
    18. Donald Byrd - Midnight (12_ Version).flac [05:07.613; FLAC • 1019 kbps • 16 bit \ 44100 Hz • stereo; 37.37 MB (39 189 178 B)]
    19. Donald Byrd - Falling.flac [03:01.187; FLAC • 923 kbps • 16 bit \ 44100 Hz • stereo; 19.96 MB (20 926 306 B)]
    20. Donald Byrd - I'm Coming Home (12_ Version).flac [04:14.120; FLAC • 1048 kbps • 16 bit \ 44100 Hz • stereo; 31.76 MB (33 298 365 B)]
    21. Donald Byrd - I'll Always Love You.flac [05:13.733; FLAC • 873 kbps • 16 bit \ 44100 Hz • stereo; 32.66 MB (34 249 776 B)]
    22. Donald Byrd - Veronica.flac [04:27.733; FLAC • 834 kbps • 16 bit \ 44100 Hz • stereo; 26.64 MB (27 931 846 B)]
    23. Donald Byrd - People Suppose to Be Free.flac [04:48.067; FLAC • 914 kbps • 16 bit \ 44100 Hz • stereo; 31.41 MB (32 931 646 B)]
    24. Donald Byrd - Have You Heard the News.flac [04:39.507; FLAC • 935 kbps • 16 bit \ 44100 Hz • stereo; 31.16 MB (32 673 672 B)]
    25. Donald Byrd - So Much In Love (12_ Version).flac [04:00.467; FLAC • 1029 kbps • 16 bit \ 44100 Hz • stereo; 29.51 MB (30 939 505 B)]

Accuracy: -m0

Track 01 - Love Has Come Around             - 100% CDDA [07:52:65]
Track 02 - I Feel Like Loving You Today     - 100% CDDA [06:55:11]
Track 03 - Cristo Redentor                  - 100% CDDA [04:42:65]
Track 04 - Thank You for Funking up My Life - 100% CDDA [04:11:15]
Track 05 - Loving You                       - 100% CDDA [04:38:29]
Track 06 - Sexy Dancer (12' Version)        - 100% CDDA [05:11:41]
Track 07 - Butterfly                        - 100% CDDA [06:05:27]
Track 08 - High Energy (12' Version)        - 100% CDDA [05:47:64]
Track 09 - I Love Your Love                 - 100% CDDA [06:59:19]
Track 10 - Morning                          - 100% CDDA [04:06:60]
Track 11 - Love for Sale                    - 100% CDDA [06:06:64]
Track 12 - Forbidden Love (12' Version)     - 100% CDDA [05:24:43]
Track 13 - Pretty Baby                      - 100% CDDA [05:06:13]
Track 14 - Your Love Is My Ecstacy          - 100% CDDA [04:57:70]
Track 15 - Close Your Eyes and Look Within  - 100% CDDA [05:12:42]
Track 16 - Sunning In Your Love Shine       - 100% CDDA [05:35:15]
Track 17 - Marilyn                          - 100% CDDA [04:00:02]
Track 18 - Midnight (12' Version)           - 100% CDDA [05:07:46]
Track 19 - Falling                          - 100% CDDA [03:01:14]
Track 20 - I'm Coming Home (12' Version)    - 100% CDDA [04:14:09]
Track 21 - I'll Always Love You             - 100% CDDA [05:13:55]
Track 22 - Veronica                         - 100% CDDA [04:27:55]
Track 23 - People Suppose to Be Free        - 100% CDDA [04:48:05]
Track 24 - Have You Heard the News          - 100% CDDA [04:39:38]
Track 25 - So Much In Love (12' Version)    - 100% CDDA [04:00:35]
————— Summary: —————
These tracks looks like CDDA with probability 100%.
————————————————————————————————————————————————————————————————————————

ANALYZER:
    auCDtect: CD records authenticity detector, version 0.8.2
    Copyright (c) 2004 Oleg Berngardt. All rights reserved.
    Copyright (c) 2004 Alexander Djourik. All rights reserved.

Time elapsed: 7 m 45 s
Log created at May 08, 2019 22:01:02

=== 0F56000D3A3BF20DECE52913924AD06C80F6A512D0C1BA05A36CDCD18A50CA3A ===
Приватный:
Нет (DHT включён)
Размер:
885.52 Мб (928,535,252 байт) » файлов: 31
Участники:
15 раздают, 0 качают (15 участников всего)
Внешние участники:
--- [ Обновить ]
Есть вопросы - пишите личное сообщение пользователю M0p94ok.
22:25
41
Нет комментариев. Ваш будет первым!