Поиск

2019 Ayumi Ishito - Midnite Cinema {BMI} [CD]

2019 Ayumi Ishito - Midnite Cinema {BMI} [CD]
Стили:
Треклист:

1. Lost Sheep. 6:32
2. Caterpillars. 6:58
3. Not Today. 6:15
4. Eight Steps. 3:01
5. Clown Ride. 3:58
6. Antler Velvet. 6:40
7. Under The Raft. 5:23
8. Sun House. 4:59

Доп. инфо:

Носитель: CD
Страна-производитель диска (релиза): US
Год издания: 2019
Издатель (лейбл): Ayumi Ishito (BMI)
Номер по каталогу: none
Страна исполнителя (группы): Japan / US
Аудиокодек: FLAC (*.flac)
Тип рипа: tracks+.cue
Продолжительность: 43:49 min
Источник: собственный рип
Наличие сканов в содержимом раздачи: [600dpi]

DRM.log
foobar2000 1.3.8 / Dynamic Range Meter 1.1.1
log date: 2019-05-06 13:06:20
--------------------------------------------------------------------------------
Analyzed: Ayumi Ishito / Midnite Cinema
--------------------------------------------------------------------------------
DR Peak RMS Duration Track
--------------------------------------------------------------------------------
DR7 -0.84 dB -10.20 dB 6:33 01-Lost Sheep
DR6 -0.82 dB -9.42 dB 6:58 02-Caterpillars
DR8 -1.05 dB -11.88 dB 6:16 03-Not Today
DR8 -0.86 dB -9.89 dB 3:01 04-Eight Steps
DR7 -1.00 dB -10.24 dB 3:59 05-Clown Ride
DR9 -1.05 dB -11.94 dB 6:41 06-Antler Velvet
DR7 -1.04 dB -10.49 dB 5:23 07-Under The Raft
DR8 -0.48 dB -10.60 dB 4:59 08-Sun House
--------------------------------------------------------------------------------
Number of tracks: 8
Official DR value: DR8
Samplerate: 44100 Hz
Channels: 2
Bits per sample: 16
Bitrate: 890 kbps
Codec: FLAC
================================================================================
Лог создания рипа
Exact Audio Copy V1.0 beta 4 from 7. December 2014
EAC extraction logfile from 6. May 2019, 12:52
Ayumi Ishito / Midnite Cinema
Used drive : ATAPI iHAS124 E Adapter: 1 ID: 0
Read mode : Secure
Utilize accurate stream : Yes
Defeat audio cache : Yes
Make use of C2 pointers : No
Read offset correction : 6
Overread into Lead-In and Lead-Out : No
Fill up missing offset samples with silence : Yes
Delete leading and trailing silent blocks : No
Null samples used in CRC calculations : Yes
Used interface : Native Win32 interface for Win NT & 2000
Gap handling : Appended to previous track
Used output format : User Defined Encoder
Selected bitrate : 768 kBit/s
Quality : High
Add ID3 tag : No
Command line compressor : C:\Program Files (x86)\flac-1.3.2-win\win64\flac.exe
Additional command line options : -8 -V -T "ARTIST=%artist%" -T "TITLE=%title%" -T "ALBUM=%albumtitle%" -T "DATE=%year%" -T "TRACKNUMBER=%tracknr%" -T "GENRE=%genre%" -T "COMMENT=ripped by vp_sunset" %source% -o %dest%
TOC of the extracted CD
Track | Start | Length | Start sector | End sector
---------------------------------------------------------
1 | 0:00.00 | 6:32.43 | 0 | 29442
2 | 6:32.43 | 6:58.03 | 29443 | 60795
3 | 13:30.46 | 6:15.39 | 60796 | 88959
4 | 19:46.10 | 3:01.36 | 88960 | 102570
5 | 22:47.46 | 3:58.39 | 102571 | 120459
6 | 26:46.10 | 6:40.48 | 120460 | 150507
7 | 33:26.58 | 5:23.32 | 150508 | 174764
8 | 38:50.15 | 4:59.04 | 174765 | 197193
Track 1
Filename C:\_EAC\01. Lost Sheep.wav
Pre-gap length 0:00:02.00
Peak level 90.8 %
Extraction speed 2.3 X
Track quality 100.0 %
Test CRC 774E7635
Copy CRC 774E7635
Track not present in AccurateRip database
Copy OK
Track 2
Filename C:\_EAC\02. Caterpillars.wav
Peak level 90.9 %
Extraction speed 2.7 X
Track quality 100.0 %
Test CRC C4EE6408
Copy CRC C4EE6408
Track not present in AccurateRip database
Copy OK
Track 3
Filename C:\_EAC\03. Not Today.wav
Peak level 88.5 %
Extraction speed 2.9 X
Track quality 100.0 %
Test CRC 87B9C461
Copy CRC 87B9C461
Track not present in AccurateRip database
Copy OK
Track 4
Filename C:\_EAC\04. Eight Steps.wav
Peak level 90.5 %
Extraction speed 2.8 X
Track quality 100.0 %
Test CRC 83F0981F
Copy CRC 83F0981F
Track not present in AccurateRip database
Copy OK
Track 5
Filename C:\_EAC\05. Clown Ride.wav
Peak level 89.0 %
Extraction speed 3.1 X
Track quality 100.0 %
Test CRC A058771B
Copy CRC A058771B
Track not present in AccurateRip database
Copy OK
Track 6
Filename C:\_EAC\06. Antler Velvet.wav
Peak level 88.5 %
Extraction speed 3.4 X
Track quality 100.0 %
Test CRC 55A90885
Copy CRC 55A90885
Track not present in AccurateRip database
Copy OK
Track 7
Filename C:\_EAC\07. Under The Raft.wav
Peak level 88.7 %
Extraction speed 3.6 X
Track quality 100.0 %
Test CRC 166A61F7
Copy CRC 166A61F7
Track not present in AccurateRip database
Copy OK
Track 8
Filename C:\_EAC\08. Sun House.wav
Peak level 94.6 %
Extraction speed 3.7 X
Track quality 100.0 %
Test CRC C8C0D9CE
Copy CRC C8C0D9CE
Track not present in AccurateRip database
Copy OK
None of the tracks are present in the AccurateRip database
No errors occurred
End of status report
---- CUETools DB Plugin V2.1.4
[CTDB TOCID: 5YCUucTmiLT3_uvBIVcV_o4rf2Y-] disk not present in database
Submit result: 5YCUucTmiLT3_uvBIVcV_o4rf2Y- has been uploaded
==== Log checksum B31AC8D88C230EB90EBA568C9EA1FA67542E2512014DE6CB422288DA6E8BE691 ====
Содержание индексной карты (.CUE)
REM GENRE "Fusion / Jazz-Rock"
REM DATE 2019
REM DISCID 650A4508
REM COMMENT "ExactAudioCopy v1.0b4"
PERFORMER "Ayumi Ishito"
TITLE "Midnite Cinema"
FILE "01. Lost Sheep.wav" WAVE
TRACK 01 AUDIO
TITLE "Lost Sheep"
PERFORMER "Ayumi Ishito"
INDEX 01 00:00:00
FILE "02. Caterpillars.wav" WAVE
TRACK 02 AUDIO
TITLE "Caterpillars"
PERFORMER "Ayumi Ishito"
INDEX 01 00:00:00
FILE "03. Not Today.wav" WAVE
TRACK 03 AUDIO
TITLE "Not Today"
PERFORMER "Ayumi Ishito"
INDEX 01 00:00:00
FILE "04. Eight Steps.wav" WAVE
TRACK 04 AUDIO
TITLE "Eight Steps"
PERFORMER "Ayumi Ishito"
INDEX 01 00:00:00
FILE "05. Clown Ride.wav" WAVE
TRACK 05 AUDIO
TITLE "Clown Ride"
PERFORMER "Ayumi Ishito"
INDEX 01 00:00:00
FILE "06. Antler Velvet.wav" WAVE
TRACK 06 AUDIO
TITLE "Antler Velvet"
PERFORMER "Ayumi Ishito"
INDEX 01 00:00:00
FILE "07. Under The Raft.wav" WAVE
TRACK 07 AUDIO
TITLE "Under The Raft"
PERFORMER "Ayumi Ishito"
INDEX 01 00:00:00
FILE "08. Sun House.wav" WAVE
TRACK 08 AUDIO
TITLE "Sun House"
PERFORMER "Ayumi Ishito"
INDEX 01 00:00:00
Лог проверки качества
-----------------------
DON'T MODIFY THIS FILE
-----------------------
PERFORMER: auCDtect Task Manager, ver. 1.6.0 RC1 build 1.6.0.1
Copyright (c) 2008-2010 y-soft. All rights reserved
http://y-soft.org
ANALYZER: auCDtect: CD records authenticity detector, version 0.8.2
Copyright (c) 2004 Oleg Berngardt. All rights reserved.
Copyright (c) 2004 Alexander Djourik. All rights reserved.
FILE: 01. Lost Sheep.flac
Size: 41864208 Hash: 89E67FB958AE9B339CA9F973F20AB77E Accuracy: -m0
Conclusion: CDDA 87%
Signature: 6902D89EFAD8018DAAC23F35DBD1552269CEB5AA
FILE: 02. Caterpillars.flac
Size: 44843959 Hash: C3ACADA39C811EF1CB61455AC027D9C6 Accuracy: -m0
Conclusion: CDDA 100%
Signature: 7CE0AFF0AEFA1BB22F940E4F9D9F349C193486A0
FILE: 03. Not Today.flac
Size: 34166777 Hash: C01ADBD77FB5171ADDEAADD8E0846304 Accuracy: -m0
Conclusion: CDDA 100%
Signature: 5E9BCAFEE220ECABB406D34AF77EC18B462CC87E
FILE: 04. Eight Steps.flac
Size: 20496688 Hash: C57A68C2695F7A71A2EF928CEC33E290 Accuracy: -m0
Conclusion: CDDA 43%
Signature: 85BF63F7EA2E6705B763034EFDBD1D2F0C66A231
FILE: 05. Clown Ride.flac
Size: 24907550 Hash: D427DF26359C61C495F146D804F4E09F Accuracy: -m0
Conclusion: CDDA 43%
Signature: DBECCD7DC1AED825D5989969D6A455FD60A48B37
FILE: 06. Antler Velvet.flac
Size: 39723081 Hash: 49E5FBBCEA5B4773EBAC01002B0F9321 Accuracy: -m0
Conclusion: CDDA 100%
Signature: 47BDA71975E02EDEE152E91D0EDCEFB61216007A
FILE: 07. Under The Raft.flac
Size: 34027570 Hash: 75A6DA5E13C8E7233406AF2C205684F8 Accuracy: -m0
Conclusion: CDDA 43%
Signature: 72ED8AD5FB49342A28E649FDDB864D1E4CACE5F1
FILE: 08. Sun House.flac
Size: 33427056 Hash: C35BE1D61C5A0A87FAD6311E2D74379A Accuracy: -m0
Conclusion: CDDA 43%
Signature: 298ACE1A702AC1E73313C82CBFD15694C529169B
Приватный:
Нет (DHT включён)
Размер:
297.33 Мб (311,776,069 байт) » файлов: 19
Участники:
0 раздают, 0 качают (0 участников всего)
Внешние участники:
2 раздают, 1 качают (3 участников всего) [ Обновить ]
For power users only: no seeders - write to support@pro-jazz.com. Для power user: нет сидеров - пишите на support@pro-jazz.com.
12:00
30
Нет комментариев. Ваш будет первым!