Вы используете незарегистрированную версию компонента "Вкладки"!

Поиск

2019 David Helbock - Playing John Williams {ACT Music} [24-96]

2019 David Helbock - Playing John Williams {ACT Music} [24-96]
Издатель (лейбл):
Доп. инфо:

Формат записи/Источник записи: [TR24][OF]
Наличие водяных знаков: Нет
Год издания/переиздания диска: 2019
Продолжительность: 55:27
Наличие сканов в содержимом раздачи: Буклет PDF

Контейнер: FLAC (*.flac)
Тип рипа: tracks
Разрядность: 24/96
Формат: PCM
Количество каналов: 2.0

Источник: highresaudio.com

Лог проверки качества
foobar2000 1.3.9 / Dynamic Range Meter 1.1.1
log date: 2020-01-03 20:30:58

--------------------------------------------------------------------------------
Analyzed: David Helbock / Playing John Williams
--------------------------------------------------------------------------------

DR         Peak         RMS     Duration Track
--------------------------------------------------------------------------------
DR13      -5.08 dB   -23.61 dB      1:53 01-Hedwig's Theme I (from Harry Potter)
DR10      -0.72 dB   -14.71 dB      3:39 02-Theme From E.T.
DR13      -3.20 dB   -21.33 dB      5:04 03-Theme From Schindler's List
DR11      -0.72 dB   -14.85 dB      3:19 04-Superman March
DR14      -9.01 dB   -29.22 dB      1:22 05-Hedwig's Theme II
DR12      -0.72 dB   -16.33 dB      3:42 06-Escapades, I. Closing In (from Catch Me If You Can)
DR13      -2.36 dB   -19.61 dB      5:38 07-Moonlight
DR10      -0.72 dB   -13.52 dB      4:38 08-Duel Of The Fates (from Star Wars)
DR11      -3.89 dB   -18.72 dB      1:28 09-Hedwig's Theme III
DR10      -0.72 dB   -14.02 dB      4:26 10-The Raiders March (from Indiana Jones)
DR13      -0.81 dB   -18.30 dB      4:52 11-Hymn To The Fallen (from Saving Privat Ryan)
DR11      -0.72 dB   -16.14 dB      3:33 12-Theme From Jurassic Park
DR11      -0.72 dB   -15.41 dB      2:17 13-Theme From Jaws
DR11      -0.72 dB   -14.33 dB      3:12 14-Hedwig's Theme IV
DR12      -0.72 dB   -18.41 dB      4:00 15-Star Wars
DR14      -6.17 dB   -25.56 dB      2:24 16-A Prayer For Peace (from Munich)
--------------------------------------------------------------------------------

Number of tracks:  16
Official DR value: DR12

Samplerate:        96000 Hz
Channels:          2
Bits per sample:   24
Bitrate:           2176 kbps
Codec:             FLAC
================================================================================
Any questions - support@pro-jazz.com. Есть вопросы - support@pro-jazz.com
11:26
210
Нет комментариев. Ваш будет первым!