Вы используете незарегистрированную версию компонента "Вкладки"!

Поиск

1952-1954 Dave Brubeck - Dave Brubeck & Paul Desmond (2019) {RevOla} [24-44,1]

1952-1954 Dave Brubeck - Dave Brubeck & Paul Desmond (2019) {RevOla} [24-44,1]
Стили:
Издатель (лейбл):
Доп. инфо:

Формат записи/Источник записи: [TR24][OF]
Издание: Remastered
Год издания/переиздания диска: 1952-54/2019
Издатель (лейбл): RevOla
Продолжительность: 01:04:17
Наличие сканов в содержимом раздачи: Нет

Контейнер: FLAC (*.flac)
Тип рипа: tracks
Разрядность: 24/44,1
Количество каналов: 2.0

Источник (релизер): Qobuz

Лог проверки качества
foobar2000 1.4.3 / Dynamic Range Meter 1.1.1
log date: 2020-01-04 08:15:17

--------------------------------------------------------------------------------
Analyzed: Dave Brubeck / Dave Brubeck & Paul Desmond
--------------------------------------------------------------------------------

DR         Peak         RMS     Duration Track
--------------------------------------------------------------------------------
DR13      -0.85 dB   -17.28 dB      7:25 01-Jeepers Creepers (Remastered)
DR10      -4.10 dB   -18.46 dB      2:41 02-On A Little Street In Singapore (Remastered)
DR10      -0.38 dB   -18.52 dB      2:16 03-Trolley Song (Rehearsal Remastered)
DR11      -3.49 dB   -17.09 dB      3:21 04-Trolley Song (Remastered)
DR10      -3.62 dB   -16.56 dB      2:52 05-I May Be Wrong (Remastered)
DR13      -3.00 dB   -19.08 dB      8:15 06-Blue Moon (Remastered)
DR11      -3.07 dB   -20.45 dB      3:25 07-My Heart Stood Still (Remastered)
DR14      -1.64 dB   -20.77 dB      7:19 08-Let's Fall In Love (Remastered)
DR13      -4.80 dB   -21.72 dB      5:03 09-Over The Rainbow (Remastered)
DR13      -2.95 dB   -20.55 dB      7:50 10-You Go To My Head (Remastered)
DR10      -1.64 dB   -17.86 dB      7:05 11-Crazy Chris (Remastered)
DR11      -2.15 dB   -16.40 dB      6:53 12-Give a Little Whistle - Oh, Lady Be Good (Remastered)
--------------------------------------------------------------------------------

Number of tracks:  12
Official DR value: DR12

Samplerate:        44100 Hz
Channels:          2
Bits per sample:   24
Bitrate:           1297 kbps
Codec:             FLAC
================================================================================
Any questions - support@pro-jazz.com. Есть вопросы - support@pro-jazz.com
13:59
280
Нет комментариев. Ваш будет первым!