Поиск

2019 Brad Mehldau - Finding Gabriel {Nonesuch} [24-88,2]

2019 Brad Mehldau - Finding Gabriel {Nonesuch} [24-88,2]
Дата записи диска:
март 2017 и октябрь 2018
Место записи:
Bunker Studios, Brooklyn
Дата издания диска:
17 мая 2019
Издатель (лейбл):
Треклист:

1. The Garden (07:18)
2. Born to Trouble (04:01)
3. Striving After Wind (04:38)
4. O Ephraim (05:21)
5. St. Mark Is Howling in the City of Night (06:20)
6. The Prophet Is a Fool (06:47)
7. Make It All Go Away (04:32)
8. Deep Water (05:13)
9. Proverb of Ashes (04:17)
10. Finding Gabriel (07:06)

Состав:
  • Becca Stevens, voice
  • Gabriel Kahane, voice
  • Ambrose Akinmusire, trumpet, solo
  • Michael Thomas, flute, alto sax
  • Charles Pillow, soprano sax, alto sax, bass clarinet
  • Joel Frahm, tenor sax
  • Chris Cheek, tenor sax, baritone sax
  • Brad Mehldau, OB-6 Polyphonic synthesizer, Therevox, Moog Little Phatty synthesizer, Steinway C grand piano, voice
  • Mark Guiliana, drums
Доп. инфо:

Формат записи/Источник записи: [TR24][OF]
Наличие водяных знаков: Нет
Продолжительность: 00:55:33
Наличие сканов в содержимом раздачи: Буклет PDF
Контейнер: FLAC (*.flac)
Тип рипа: tracks
Разрядность: 24/88.2
Формат: PCM
Количество каналов: 2.0
Источник (релизер): highresaudio.com

Лог проверки качества
foobar2000 1.4 / Dynamic Range Meter 1.1.1
log date: 2019-05-17 05:42:13

--------------------------------------------------------------------------------
Analyzed: Brad Mehldau / Finding Gabriel
--------------------------------------------------------------------------------

DR         Peak         RMS     Duration Track
--------------------------------------------------------------------------------
DR6        0.00 dB    -9.81 dB      7:18 01-The Garden
DR7       -0.30 dB   -10.46 dB      4:01 02-Born to Trouble
DR8       -0.30 dB   -10.64 dB      4:39 03-Striving After Wind
DR6       -0.30 dB    -9.83 dB      5:22 04-O Ephraim
DR6       -0.30 dB   -10.60 dB      6:20 05-St. Mark Is Howling in the City of Night
DR6       -0.30 dB    -9.57 dB      6:48 06-The Prophet Is a Fool
DR8       -0.30 dB   -10.93 dB      4:32 07-Make It All Go Away
DR9       -0.30 dB   -13.74 dB      5:13 08-Deep Water
DR7       -0.30 dB   -10.12 dB      4:18 09-Proverb of Ashes
DR6       -0.30 dB    -9.46 dB      7:06 10-Finding Gabriel
--------------------------------------------------------------------------------

Number of tracks:  10
Official DR value: DR7
Samplerate:        88200 Hz
Channels:          2
Bits per sample:   24
Bitrate:           2696 kbps
Codec:             FLAC
================================================================================
11:57
864
Нет комментариев. Ваш будет первым!