Вы используете незарегистрированную версию компонента "Вкладки"!

Поиск

2019 Behn Gillece - Parallel Universe {Posi-Tone} [24-88,2]

2019 Behn Gillece - Parallel Universe {Posi-Tone} [24-88,2]
Дата записи диска:
23 июня 2018
Место записи:
Acoustic Recording, Brooklyn, NY
Издатель (лейбл):
Номер по каталогу:
PR 8190
Носитель:
WEB
Формат:
PCM
Тип рипа:
tracks+.cue
Контейнер:
FLAC (*.flac)
Количество каналов:
2.0
Разрядность/ЧД:
24/88,2
Битрейт аудио:
lossless
Время звучания:
00:58:00
Наличие сканов:
web
Страна-производитель диска (релиза):
USA
Релизёр (источник):
M0p94ok
Лог проверки качества
foobar2000 1.5.5 / Dynamic Range Meter 1.1.1
log date: 2020-09-10 16:33:13

--------------------------------------------------------------------------------
Analyzed: Behn Gillece / Parallel Universe
--------------------------------------------------------------------------------

DR         Peak         RMS     Duration Track
--------------------------------------------------------------------------------
DR8       -0.98 dB   -10.94 dB      5:11 01-Break The Ice
DR10      -0.98 dB   -12.36 dB      5:55 02-Bossa For R.M
DR9       -0.98 dB   -11.34 dB      6:29 03-Parallel Universe
DR9       -0.98 dB   -11.93 dB      5:08 04-Ready For Tomorrow
DR8       -0.98 dB   -10.91 dB      4:33 05-Smoke Screen
DR9       -0.98 dB   -12.03 dB      3:04 06-Eviscerate
DR8       -0.98 dB   -10.97 dB      4:53 07-Downpour
DR9       -0.98 dB   -11.46 dB      5:37 08-Shadow Of The Flame
DR12      -0.98 dB   -15.88 dB      7:16 09-Evening Glow
DR10      -0.98 dB   -13.27 dB      4:43 10-Alice's Journey
DR13      -1.31 dB   -18.55 dB      5:13 11-Candle In The Dark
--------------------------------------------------------------------------------

Number of tracks:  11
Official DR value: DR9

Samplerate:        88200 Hz
Channels:          2
Bits per sample:   24
Bitrate:           2507 kbps
Codec:             FLAC
================================================================================
Any questions - support@pro-jazz.com. Есть вопросы - support@pro-jazz.com
16:59
281
Нет комментариев. Ваш будет первым!