Вы используете незарегистрированную версию компонента "Вкладки"!

Поиск

1979 Pat Metheny - New Chautauqua (2020) {ECM} [24-96]

1979 Pat Metheny - New Chautauqua (2020) {ECM} [24-96]
Дата записи диска:
август 1978
Место записи:
Talent Studio, Oslo, Norway
Дата издания диска:
1 марта 1979
Издатель (лейбл):
Битрейт аудио:
lossless
Доп. инфо:

Формат записи/Источник записи: [TR24][OF]
Издание: Remastered
Год издания/переиздания диска: 1979/2020
Продолжительность: 00:38:41
Наличие сканов в содержимом раздачи: Буклет PDF

Контейнер: FLAC (*.flac)
Тип рипа: tracks
Разрядность: 24/96
Количество каналов: 2.0

Источник (релизер): e-onkyo

Лог проверки качества
foobar2000 1.4.3 / Dynamic Range Meter 1.1.1
log date: 2020-08-01 10:41:56

--------------------------------------------------------------------------------
Analyzed: Pat Metheny / New Chautauqua
--------------------------------------------------------------------------------

DR         Peak         RMS     Duration Track
--------------------------------------------------------------------------------
DR13      -0.89 dB   -19.66 dB      5:25 01-New Chautauqua
DR13      -3.93 dB   -23.92 dB      2:36 02-Country Poem
DR14      -3.11 dB   -23.46 dB     10:21 03-Long Ago Child / Fallen Star
DR14      -3.04 dB   -23.14 dB      5:42 04-Hermitage
DR15      -2.38 dB   -24.28 dB      6:00 05-Sueño Con Mexico
DR16      -0.75 dB   -22.00 dB      8:40 06-Daybreak
--------------------------------------------------------------------------------

Number of tracks:  6
Official DR value: DR14

Samplerate:        96000 Hz
Channels:          2
Bits per sample:   24
Bitrate:           2506 kbps
Codec:             FLAC
================================================================================
Any questions - support@pro-jazz.com. Есть вопросы - support@pro-jazz.com
16:05
277
Нет комментариев. Ваш будет первым!