Поиск

2019 Abekejser - Floating Through the Universe {AMP Music} [24-44.1]

2019 Abekejser - Floating Through the Universe {AMP Music} [24-44.1]
Стили:
Дата издания диска:
18 октября 2019
Номер по каталогу:
AT054
Носитель:
WEB
Формат:
PCM
Тип рипа:
tracks
Контейнер:
FLAC (*.flac)
Количество каналов:
2.0
Разрядность/ЧД:
24/44,1
Битрейт аудио:
lossless
Наличие сканов:
только обложка

Треклист:

1. Nitro Nemesis  03:42
2. Magical  03:49
3. Wushu Dance  04:26
4. Robomance  05:03
5. Floating Through The Universe  04:26
6. Nocturnal Observer  04:20
7. Cybergenics  05:40
8. Warped  04:03

Состав:
  •    Drum Machine – Rasmus Fisker Pedersen
  •     Drums – Frederik Emil Bülow
  •     Guitar – Jeppe Lavsen
  •     Keyboards, Vocoder – Jon Døssing Bendixen
  •     Mastered By – Emil Thomsen
  •     Mixed By – Abekejser, Jacob Schjødt Worm
  •     Producer, Recorded By – Abekejser
  •     Synth [Bass] – Adrian Christensen
  •     Mixed by Jacob Schjødt Worm
Лог проверки качества
foobar2000 1.6.10 / Dynamic Range Meter 1.1.1
log date: 2022-08-20 20:42:48

--------------------------------------------------------------------------------
Analyzed: Abekejser / Floating Through the Universe
--------------------------------------------------------------------------------

DR         Peak         RMS     Duration Track
--------------------------------------------------------------------------------
DR7       -0.06 dB    -8.38 dB      3:42 01-Nitro Nemesis
DR6       -0.06 dB    -6.94 dB      3:49 02-Magical
DR5       -0.06 dB    -6.31 dB      4:26 03-Wushu Dance
DR7       -0.06 dB    -9.19 dB      5:03 04-Robomance
DR6       -0.06 dB    -7.63 dB      4:26 05-Floating Through The Universe
DR5       -0.06 dB    -6.39 dB      4:20 06-Nocturnal Observer
DR6       -0.06 dB    -7.96 dB      5:41 07-Cybergenics
DR6       -0.06 dB    -7.76 dB      4:04 08-Warped
--------------------------------------------------------------------------------

Number of tracks:  8
Official DR value: DR6

Samplerate:        44100 Hz
Channels:          2
Bits per sample:   24
Bitrate:           1676 kbps
Codec:             FLAC
================================================================================
По всем вопросам пишите личное сообщение пользователю M0p94ok.
19:44
105
Нет комментариев. Ваш будет первым!