Поиск

2018 VA - Something More - Jazz Music of Timothy Lee Miller {Ansonica} [24-44,1]

2018 VA - Something More - Jazz Music of Timothy Lee Miller {Ansonica} [24-44,1]
Дата записи диска:
май 2016; сентябрь 2017
Место записи:
Ovation Sound, Winston-Salem, NC
Носитель:
WEB
Тип рипа:
tracks+.cue
Аудиокодек:
FLAC (*.flac)
Битрейт аудио:
lossless
Время звучания:
00:55:09
Наличие сканов:
web
Релизёр (источник):
M0p94ok

Треклист:

1. Sebastian's Day Off (A Day In The Park) 08:35    
2. Ruby in the Ruff 05:44    
3. Inky & Marie 04:59    
4. Dear Della Mae 06:06    
5. Stellee & Jack 05:19    
6. Boo's Bolero 07:28    
7. Poochie's Waltz 08:08    
8. Something More 08:50

Лог проверки качества
foobar2000 1.3.16 / Dynamic Range Meter 1.1.1
log date: 2019-02-13 18:31:28

--------------------------------------------------------------------------------
Analyzed: Annalise Stalls / Something More: Jazz Music of Timothy Lee Miller (1-3)
          Dave Finucane / Something More: Jazz Music of Timothy Lee Miller (4-5)
          Jason Prover / Something More: Jazz Music of Timothy Lee Miller (6-8)
--------------------------------------------------------------------------------

DR         Peak         RMS     Duration Track
--------------------------------------------------------------------------------
DR8       -0.50 dB   -10.81 dB      8:36 01-Sebastian's Day Off
DR8       -0.50 dB   -10.49 dB      5:44 02-Ruby in the Ruff
DR9       -0.50 dB   -12.53 dB      8:51 08-Something More
DR8       -0.50 dB   -10.85 dB      5:19 05-Stellee and Jack
DR8       -0.50 dB   -11.60 dB      7:29 06-Boo's Bolero
DR12      -0.50 dB   -16.62 dB      6:06 03-Dear Della Mae
DR10      -0.99 dB   -13.50 dB      5:00 04-Inky and Marie
DR13      -1.31 dB   -19.18 dB      8:08 07-Poochie's Waltz
--------------------------------------------------------------------------------

Number of tracks:  8
Official DR value: DR10

Samplerate:        44100 Hz
Channels:          2
Bits per sample:   24
Bitrate:           1259 kbps
Codec:             FLAC
================================================================================
Приватный:
Нет (DHT включён)
Размер:
594.40 Мб (623,276,538 байт) » файлов: 10
Участники:
9 раздают, 0 качают (9 участников всего)
Внешние участники:
--- [ Обновить ]
For power users only: no seeders - write personal message to M0p94ok. Для power user: нет сидеров - пишите в личку M0p94ok.
21:00
108
Нет комментариев. Ваш будет первым!