Вы используете незарегистрированную версию компонента "Вкладки"!

Поиск

2018 VA - CancerBlows - The Legends Return {Music=Hope} [24-96]

2018 VA - CancerBlows - The Legends Return {Music=Hope} [24-96]
Дата записи диска:
8 и 10 мая 2017
Место записи:
Dallas, Texas, USA
Носитель:
WEB
Тип рипа:
tracks+.cue
Битрейт аудио:
lossless
Время звучания:
01:33:00
Наличие сканов:
да
Страна-производитель диска (релиза):
USA
Релизёр (источник):
M0p94ok
Лог проверки качества
foobar2000 1.3.16 / Dynamic Range Meter 1.1.1
log date: 2018-12-31 19:06:09

--------------------------------------------------------------------------------
Analyzed: The Principals / CancerBlows: The Legends Return
--------------------------------------------------------------------------------

DR         Peak         RMS     Duration Track
--------------------------------------------------------------------------------
DR11      -0.92 dB   -14.85 dB      2:16 01-The Principals - Wiener Philharmoniker Fanfare, Op 109, TrV 248 (Live)
DR12      -0.92 dB   -16.47 dB      4:14 02-Allen Vizzutti - Capriccio (Live)
DR12      -0.92 dB   -16.39 dB      7:04 03-Arturo Sandoval - Maynard and Waynard (Live)
DR12      -0.92 dB   -16.35 dB      5:02 04-Wycliffe Gordon - We're Still Here He's Alright (Live)
DR16      -0.92 dB   -21.53 dB      7:14 05-Arturo Sandoval - Zane (Live)
DR12      -0.92 dB   -16.32 dB      6:13 06-Rashawn Ross - Move Your Rug (Live)
DR13      -0.92 dB   -16.38 dB      3:34 07-Arturo Sandoval - The Brave Matador (Live)
DR13      -0.92 dB   -18.56 dB      9:07 08-Randy Brecker - Boo (Live)
DR15      -0.92 dB   -20.58 dB      4:27 09-Marvin Stamm - Black, Brown and Beige No 1, Come Sunday (Live)
DR12      -0.92 dB   -17.52 dB      3:59 10-The Principals - Dectet (Live)
DR12      -0.92 dB   -17.49 dB      4:49 11-Ryan Anthony - You'll Never Walk Alone (From Carousel) [Live]
DR10      -0.92 dB   -13.43 dB      7:45 12-Lee Loughnane - Chicago Medley for CancerBlows (Live)
DR11      -0.92 dB   -16.10 dB      3:58 13-The Principals - Estancia Suite, Op 8a II Danza del trigo (Live)
DR13      -0.92 dB   -17.28 dB      1:04 14-The Principals - Yosemite Fanfare (Live)
DR11      -0.92 dB   -15.02 dB      4:23 15-Doc Severinsen - One O'clock Jump (Live)
DR15      -0.90 dB   -19.23 dB      7:25 16-Randy Brecker - Lover Man (Live)
DR12      -0.90 dB   -16.15 dB     10:34 17-Wayne Bergeron - MacArthur Park (Live)
--------------------------------------------------------------------------------

Number of tracks:  17
Official DR value: DR12

Samplerate:        96000 Hz
Channels:          2
Bits per sample:   24
Bitrate:           2954 kbps
Codec:             FLAC
================================================================================
Any questions - support@pro-jazz.com. Есть вопросы - support@pro-jazz.com
14:51
284
Нет комментариев. Ваш будет первым!