Поиск

2018 Thomas Bramerie Trio - Side Stories {Jazz Eleven, Absilone} [24-96]

2018 Thomas Bramerie Trio - Side Stories {Jazz Eleven, Absilone} [24-96]
Стили:

Состав:
  • Thomas Bramerie - bass
  • Carl-Henri Morisset - piano
  • Elie Martin-Charierre - drums

guests

  • Jacky Terrasson  — piano (5, 6)
  • Stéphane Belmondo - trumpet (6, 8, 13)
  • Eric Legnini - Fender Rhodes (3, 7)

Формат записи/Источник записи: [TR24][OF]
Год издания: 2018
Издатель (лейбл): Jazz Eleven, Absilone
Страна исполнителя: France
Аудиокодек: FLAC (*.flac)
Разрядность: 24 bits / 96 kHz
Количество каналов: 2
Тип рипа: tracks
Продолжительность: 56:36
Источник (релизер): WEB
Наличие сканов: нет

Треклист:
01. Pichot bebei 0:29
02. Played Twice 6:10
03. Here 6:00
04. Yêïnou 5:14
05. Now 3:15
06. Side Stories 5:32
07. All Alone 3:38
08. Un jour tu verras 3:55
09. Chantez 3:11
10. Emile 5:30
11. Work Song 4:02
12. Salut d'amour 2:59
13. Troç de vida 4:20
14. Avec le temps 2:15

 
Лог проверки качества
foobar2000 1.3.12 / Замер динамического диапазона (DR) 1.1.1
Дата отчёта:  2018-05-31 10:24:24
--------------------------------------------------------------------------------
Анализ:   Thomas Bramerie Trio / Side Stories
--------------------------------------------------------------------------------
DR         Пики         RMS           Продолжительность трека
--------------------------------------------------------------------------------
DR8       -5.57 дБ   -15.87 дБ      0:30 01-Pichot bebei
DR9       -0.71 дБ   -11.77 дБ      6:10 02-Played Twice
DR9       -0.71 дБ   -11.91 дБ      6:01 03-Here (feat. Eric Legnini)
DR9       -0.71 дБ   -12.12 дБ      5:14 04-Yeinou
DR11      -0.71 дБ   -14.88 дБ      3:16 05-Now (feat. Jacky Terrasson)
DR11      -0.71 дБ   -15.95 дБ      5:32 06-Side Stories (feat. Stephane Belmondo, Jacky Terrasson)
DR8       -0.91 дБ   -12.03 дБ      3:39 07-All Alone (feat. Eric Legnini)
DR9       -0.71 дБ   -11.81 дБ      3:56 08-Un jour tu verras (feat. Stephane Belmondo)
DR8       -0.71 дБ   -10.87 дБ      3:11 09-Chantez
DR10      -0.71 дБ   -13.47 дБ      5:30 10-Emile
DR9       -0.71 дБ   -11.41 дБ      4:02 11-Work Song
DR10      -0.71 дБ   -15.22 дБ      3:00 12-Salut d'amour
DR8       -0.71 дБ   -10.05 дБ      4:20 13-Troc de vida (feat. Stephane Belmondo)
DR13      -0.71 дБ   -17.47 дБ      2:15 14-Avec le temps
--------------------------------------------------------------------------------
Количество треков: 14
Реальные значения DR: DR9
Частота:   96000 Гц
Каналов:   2
Разрядность:   24
Битрейт:   2284 кбит/с
Кодек:   FLAC
================================================================================

 

Приватный:
Нет (DHT включён)
Размер:
1.11 Гб (1,195,551,495 байт) » файлов: 16
Участники:
0 раздают, 1 качают (1 участников всего)
Внешние участники:
--- [ Обновить ]
14:18
46
RSS
Нет комментариев. Ваш будет первым!