Поиск

2018 Lewis Wright - Duets {Signum} [24-96]

2018 Lewis Wright - Duets {Signum} [24-96]
Стили:
Издатель (лейбл):

Состав:
  • Lewis Wright - vibraphone
  • Kit Downes - piano

Produced by Lewis Wright. Engineered by Tom Bailey.
Recorded on February 19-20, 2016 at Air Studios, London.

Формат записи/Источник записи: [TR24][OF]
Наличие водяных знаков: Нет
Год издания/переиздания диска: 2018
Продолжительность: 32:44
Наличие сканов в содержимом раздачи: Только обложка альбома
Контейнер: FLAC (*.flac)
Тип рипа: tracks
Разрядность: 24/96
Формат: PCM
Количество каналов: 2.0
Источник: qobuz.com

Треклист:
01. Fire & Flow (5:28)
02. Fortuna (4:31)
03. An Absence Of Heart (4:11)
04. Ono No Komachi (4:51)
05. Tokyo '81 (3:44)
06. Sati (4:12)
07. Kintamani (5:47)

 
Лог проверки качества
foobar2000 1.3.9 / Dynamic Range Meter 1.1.1
log date: 2018-06-01 10:52:29
--------------------------------------------------------------------------------
Analyzed: Lewis Wright, Kit Downes / Duets
--------------------------------------------------------------------------------
DR         Peak         RMS     Duration Track
--------------------------------------------------------------------------------
DR9       -1.10 dB   -14.79 dB      5:28 01-Fire & Flow
DR9       -1.10 dB   -12.94 dB      4:31 02-Fortuna
DR13      -1.10 dB   -17.97 dB      4:11 03-An Absence Of Heart
DR14      -1.10 dB   -19.59 dB      4:51 04-Ono No Komachi
DR9       -1.10 dB   -12.88 dB      3:44 05-Tokyo '81
DR12      -1.10 dB   -16.31 dB      4:12 06-Sati
DR12      -1.10 dB   -17.02 dB      5:47 07-Kintamani
--------------------------------------------------------------------------------
Number of tracks:  7
Official DR value: DR11
Samplerate:        96000 Hz
Channels:          2
Bits per sample:   24
Bitrate:           2183 kbps
Codec:             FLAC
================================================================================

 

Скачивание доступно после регистрации!!
Приватный:
Нет (DHT включён)
Размер:
519.90 Мб (545,154,832 байт) » файлов: 10
Участники:
3 раздают, 1 качают (4 участников всего)
Внешние участники:
--- [ Обновить ]
11:49
57
RSS
Нет комментариев. Ваш будет первым!