Вы используете незарегистрированную версию компонента "Вкладки"!

Поиск

2018 Something Blue - Maximum Enjoyment {Posi-Tone PR 8189} [24-88,2]

2018 Something Blue - Maximum Enjoyment {Posi-Tone PR 8189} [24-88,2]
Стили:
Место записи:
Acoustic Recording, Brooklyn, NY, USA
Издатель (лейбл):
Номер по каталогу:
PR 8189
Носитель:
WEB
Формат:
PCM
Тип рипа:
tracks+.cue
Контейнер:
FLAC (*.flac)
Количество каналов:
2.0
Разрядность/ЧД:
24/88,2
Битрейт аудио:
lossless
Время звучания:
00:54:04
Наличие сканов:
web
Страна-производитель диска (релиза):
USA
Релизёр (источник):
M0p94ok
Лог проверки качества
foobar2000 1.5.5 / Dynamic Range Meter 1.1.1
log date: 2020-09-09 18:14:18

--------------------------------------------------------------------------------
Analyzed: Something Blue / Maximum Enjoyment
--------------------------------------------------------------------------------

DR         Peak         RMS     Duration Track
--------------------------------------------------------------------------------
DR10      -0.98 dB   -12.82 dB      5:36 01-Slick
DR10      -0.98 dB   -12.18 dB      3:55 02-Copper Tone
DR11      -0.98 dB   -14.34 dB      3:56 03-Stunts And Twists
DR10      -0.98 dB   -12.91 dB      4:35 04-Aoi Blu
DR9       -0.98 dB   -11.92 dB      4:34 05-Overcooked
DR11      -0.98 dB   -15.32 dB      7:17 06-Vast
DR10      -0.98 dB   -12.88 dB      5:11 07-Breeze
DR11      -0.98 dB   -13.09 dB      3:46 08-Cluster Funk
DR10      -0.98 dB   -13.29 dB      4:51 09-Shift
DR9       -0.98 dB   -13.28 dB      5:11 10-Why Aren't You Excited
DR10      -0.98 dB   -12.71 dB      5:15 11-New Direction
--------------------------------------------------------------------------------

Number of tracks:  11
Official DR value: DR10

Samplerate:        88200 Hz
Channels:          2
Bits per sample:   24
Bitrate:           2799 kbps
Codec:             FLAC
================================================================================
Any questions - support@pro-jazz.com. Есть вопросы - support@pro-jazz.com
18:27
238
Нет комментариев. Ваш будет первым!