Поиск

2018 Lisa Ono - 旅 そして ふるさと {DREAMUSIC} [24-44,1]

2018 Lisa Ono - 旅 そして ふるさと {DREAMUSIC} [24-44,1]
Битрейт аудио:
lossless
Треклист:

01. 恋の町札幌(作詞・作曲:浜口庫之助)
02. 知床旅情(作詞・作曲:森繁久弥)
03. 小樽運河(作詞:吉岡 治 作曲:弦 哲也)
04. いい日旅立ち(作詞・作曲:谷村新司)
05. 旅の宿(作詞:岡本おさみ 作曲:吉田拓郎)
06. 港が見える丘(作詞・作曲:東 辰三)
07. アメリカ橋(作詞:山口洋子 作曲:平尾昌晃)
08. 星影の小径(作詞:矢野 亮 作曲:利根一郎)
09. 女ひとり(作詞:永 六輔 作曲:いずみたく)
10. 大阪の女(作詞:橋本 淳 作曲:中村泰士)
11. あなたのふるさと~岡山旅情~(作詞・作曲:沖 正夫)
12. 南国土佐を後にして(作詞・作曲:武政英策)
13. 長崎の鐘(作詞:サトウハチロー 作曲:古関裕而)
14. メロディー(作詞・作曲:玉置浩二)

Доп. инфо:

Формат записи/Источник записи: [TR24][OF]
Наличие водяных знаков: Нет
Год издания/переиздания диска: 2018
Издатель (лейбл): DREAMUSIC
Продолжительность: 53:05
Наличие сканов в содержимом раздачи: Нет

Контейнер: FLAC (*.flac)
Тип рипа: tracks
Разрядность: 24/44,1
Формат: PCM
Количество каналов: 2.0

Источник (релизер): mora.jp

Лог проверки качества
foobar2000 1.5.5 beta 3 / Dynamic Range Meter 1.1.1
log date: 2020-07-14 14:10:39

--------------------------------------------------------------------------------
Analyzed: 小野リサ / 旅 そして ふるさと
--------------------------------------------------------------------------------

DR         Peak         RMS     Duration Track
--------------------------------------------------------------------------------
DR9       -1.39 dB   -12.31 dB      4:15 01-恋の町札幌
DR9       -0.70 dB   -11.56 dB      3:22 02-知床旅情
DR12      -1.40 dB   -15.15 dB      4:06 03-小樽運河
DR10      -1.40 dB   -13.27 dB      4:23 04-いい日旅立ち
DR9       -1.34 dB   -11.47 dB      3:13 05-旅の宿
DR10      -1.40 dB   -12.54 dB      3:36 06-港が見える丘
DR11      -1.37 dB   -14.20 dB      4:15 07-アメリカ橋
DR13      -0.91 dB   -17.03 dB      2:59 08-星影の小径
DR12      -4.65 dB   -21.31 dB      5:07 09-女ひとり
DR10      -1.40 dB   -13.08 dB      3:02 10-大阪の女
DR13      -0.90 dB   -16.33 dB      3:58 11-あなたのふるさと~岡山旅情~
DR12      -0.87 dB   -14.56 dB      4:37 12-南国土佐を後にして
DR12      -0.90 dB   -16.28 dB      4:27 13-長崎の鐘
DR9       -1.39 dB   -13.05 dB      4:51 14-メロディー
--------------------------------------------------------------------------------

Number of tracks:  14
Official DR value: DR11

Samplerate:        44100 Hz
Channels:          2
Bits per sample:   24
Bitrate:           1481 kbps
Codec:             FLAC
================================================================================
По всем вопросам пишите личное сообщение пользователю M0p94ok.
17:44
497
Нет комментариев. Ваш будет первым!