Поиск

2018 SLUGish Ensemble - An Eight out of Nine {Slow Steady SS01} [CD]

2018 SLUGish Ensemble - An Eight out of Nine {Slow Steady SS01} [CD]
Битрейт аудио:
lossless
Треклист:

1. The Tower. 7:52
2. Be Brave (feat. Daniel Rotem). 5:53
3. An Eight out of Nine. 6:39
4. Prisoners. 6:30
5. Red, Like Roses. 7:52
6. Looking at the Sun. 4:56
7. Bluebird. 6:18

Жанр: Fusion / Contemporary Jazz
Носитель: CD
Страна-производитель диска (релиза): US
Год издания: 2018
Издатель (лейбл): Slow Steady
Номер по каталогу: SS01
Страна исполнителя (группы): US
Аудиокодек: FLAC (*.flac)
Тип рипа: tracks+.cue
Битрейт аудио: lossless
Продолжительность: 46:03 min
Источник: vp_sunset
Наличие сканов в содержимом раздачи: да [600dpi]

Лог создания рипа
Exact Audio Copy V1.0 beta 4 from 7. December 2014

EAC extraction logfile from 28. January 2019, 12:02

SLUGish Ensemble / An Eight out of Nine

Used drive  : ATAPI   iHAS124   E   Adapter: 1  ID: 0

Read mode               : Secure
Utilize accurate stream : Yes
Defeat audio cache      : Yes
Make use of C2 pointers : No

Read offset correction                      : 6
Overread into Lead-In and Lead-Out          : No
Fill up missing offset samples with silence : Yes
Delete leading and trailing silent blocks   : No
Null samples used in CRC calculations       : Yes
Used interface                              : Native Win32 interface for Win NT & 2000
Gap handling                                : Appended to previous track

Used output format : Internal WAV Routines
Sample format      : 44.100 Hz; 16 Bit; Stereo

TOC of the extracted CD

     Track |   Start  |  Length  | Start sector | End sector
    ---------------------------------------------------------
        1  |  0:00.00 |  7:52.54 |         0    |    35453
        2  |  7:52.54 |  5:53.65 |     35454    |    61993
        3  | 13:46.44 |  6:39.36 |     61994    |    91954
        4  | 20:26.05 |  6:30.19 |     91955    |   121223
        5  | 26:56.24 |  7:52.54 |    121224    |   156677
        6  | 34:49.03 |  4:56.26 |    156678    |   178903
        7  | 39:45.29 |  6:18.09 |    178904    |   207262

Track  1

     Filename C:\_EAC\01. The Tower.wav

     Pre-gap length  0:00:02.00

     Peak level 98.8 %
     Extraction speed 2.0 X
     Track quality 99.9 %
     Test CRC 53DEE180
     Copy CRC 53DEE180
     Track not present in AccurateRip database
     Copy OK

Track  2

     Filename C:\_EAC\02. Be Brave.wav

     Peak level 98.8 %
     Extraction speed 2.2 X
     Track quality 99.9 %
     Test CRC 60C3071C
     Copy CRC 60C3071C
     Track not present in AccurateRip database
     Copy OK

Track  3

     Filename C:\_EAC\03. An Eight out of Nine.wav

     Peak level 98.8 %
     Extraction speed 2.9 X
     Track quality 100.0 %
     Test CRC 8AEE45B2
     Copy CRC 8AEE45B2
     Track not present in AccurateRip database
     Copy OK

Track  4

     Filename C:\_EAC\04. Prisoners.wav

     Peak level 98.8 %
     Extraction speed 3.2 X
     Track quality 100.0 %
     Test CRC BF65C4F3
     Copy CRC BF65C4F3
     Track not present in AccurateRip database
     Copy OK

Track  5

     Filename C:\_EAC\05. Red, Like Roses.wav

     Peak level 98.8 %
     Extraction speed 2.9 X
     Track quality 99.9 %
     Test CRC A5E74693
     Copy CRC A5E74693
     Track not present in AccurateRip database
     Copy OK

Track  6

     Filename C:\_EAC\06. Looking at the Sun.wav

     Peak level 98.8 %
     Extraction speed 3.6 X
     Track quality 100.0 %
     Test CRC 0EDBC889
     Copy CRC 0EDBC889
     Track not present in AccurateRip database
     Copy OK

Track  7

     Filename C:\_EAC\07. Bluebird.wav

     Peak level 98.8 %
     Extraction speed 3.8 X
     Track quality 100.0 %
     Test CRC 7BA0CF08
     Copy CRC 7BA0CF08
     Track not present in AccurateRip database
     Copy OK

None of the tracks are present in the AccurateRip database

No errors occurred

End of status report

---- CUETools DB Plugin V2.1.4

[CTDB TOCID: 5wCeRd0iu3NxPLdqhACad0jNyv0-] disk not present in database
Submit result: 5wCeRd0iu3NxPLdqhACad0jNyv0- has been uploaded

==== Log checksum ED9F430896B70C5199AD8FB693FD8966175C71CAB442689C1BCFDC29E0CAA0A3 ====
Содержание индексной карты (.CUE)
REM GENRE "Contemporary Jazz"
REM DATE 2018
REM DISCID 600ACB07
REM COMMENT "ExactAudioCopy v1.0b4"
PERFORMER "SLUGish Ensemble"
TITLE "An Eight out of Nine"
FILE "01. The Tower.wav" WAVE
  TRACK 01 AUDIO
    TITLE "The Tower"
    PERFORMER "SLUGish Ensemble"
    INDEX 01 00:00:00
FILE "02. Be Brave.wav" WAVE
  TRACK 02 AUDIO
    TITLE "Be Brave"
    PERFORMER "SLUGish Ensemble"
    INDEX 01 00:00:00
FILE "03. An Eight out of Nine.wav" WAVE
  TRACK 03 AUDIO
    TITLE "An Eight out of Nine"
    PERFORMER "SLUGish Ensemble"
    INDEX 01 00:00:00
FILE "04. Prisoners.wav" WAVE
  TRACK 04 AUDIO
    TITLE "Prisoners"
    PERFORMER "SLUGish Ensemble"
    INDEX 01 00:00:00
FILE "05. Red, Like Roses.wav" WAVE
  TRACK 05 AUDIO
    TITLE "Red, Like Roses"
    PERFORMER "SLUGish Ensemble"
    INDEX 01 00:00:00
FILE "06. Looking at the Sun.wav" WAVE
  TRACK 06 AUDIO
    TITLE "Looking at the Sun"
    PERFORMER "SLUGish Ensemble"
    INDEX 01 00:00:00
FILE "07. Bluebird.wav" WAVE
  TRACK 07 AUDIO
    TITLE "Bluebird"
    PERFORMER "SLUGish Ensemble"
    INDEX 01 00:00:00
Лог проверки качества
-----------------------

DON'T MODIFY THIS FILE

-----------------------

PERFORMER: auCDtect Task Manager, ver. 1.6.0 RC1 build 1.6.0.1
Copyright (c) 2008-2010 y-soft. All rights reserved
http://y-soft.org

ANALYZER: auCDtect: CD records authenticity detector, version 0.8.2
Copyright (c) 2004 Oleg Berngardt. All rights reserved.
Copyright (c) 2004 Alexander Djourik. All rights reserved.

FILE: 01. The Tower.flac
  Size: 49398008 Hash: 82C998414CDE66B03E5C405622AFA4BB Accuracy: -m0
  Conclusion: CDDA 100%
  Signature: 0D762216DBA67EDC514634491E221103280201AA
FILE: 02. Be Brave.flac
  Size: 36028911 Hash: BCBC730D9DE1A3FF6D5B08A154FBDA89 Accuracy: -m0
  Conclusion: CDDA 99%
  Signature: 4F8846BC3AB9F178974AC0F74648EB11F40E7B5B
FILE: 03. An Eight out of Nine.flac
  Size: 40628396 Hash: 1B74E88E33197F9BA636F56E3D607068 Accuracy: -m0
  Conclusion: CDDA 100%
  Signature: 47B65DAC2970E86498898133BEC315E393B11C8E
FILE: 04. Prisoners.flac
  Size: 40856748 Hash: 591C0C3E51013A23A58E0A43F8F9E9ED Accuracy: -m0
  Conclusion: CDDA 100%
  Signature: D082695CFF1B0B8D636E42C622E1489192D9DE56
FILE: 05. Red, Like Roses.flac
  Size: 40812715 Hash: AC101EACDFA1D71EFD2C45BB10BD8DBA Accuracy: -m0
  Conclusion: CDDA 100%
  Signature: A3BEFD2664C730FC313CA44906367382BFC78BB6
FILE: 06. Looking at the Sun.flac
  Size: 30386341 Hash: C4C333F822A1C73D5B932BF3F50FBA00 Accuracy: -m0
  Conclusion: CDDA 100%
  Signature: 549199CD4FB03CF19103BC804BB0F3DE99F6453E
FILE: 07. Bluebird.flac
  Size: 37422395 Hash: 99E388653B1F3053F93EA46BC272164E Accuracy: -m0
  Conclusion: CDDA 100%
  Signature: 25BB9D44C33DB7F4C8D2C22FD0B6E5B2D24EB1B3
Приватный:
Нет (DHT включён)
Размер:
320.09 Мб (335,639,781 байт) » файлов: 22
Участники:
3 раздают, 0 качают (3 участников всего)
Внешние участники:
10 раздают, 3 качают (13 участников всего) [ Обновить ]
22:50
15
Нет комментариев. Ваш будет первым!