Поиск

2018 Gansan - The African Way of Life {homerecords 4446205} [CD]

2018 Gansan - The African Way of Life {homerecords 4446205} [CD]
Битрейт аудио:
lossless
Треклист:

1. L'avis de Zoé. 6:28
2. Ouaga - Bobo. 6:34
3. Sans faute. 5:27
4. Kaleidoscope. 6:09
5. Taxi brousse. 5:54
6. African Way of Life. 7:32
7. Reflection. 7:43
8. Reminiscence. 7:12
9. Coeur d'ébène. 6:20

All compositions by Ludovic Jeanmart
Arrangements by Gansan & Guests
Recorded at Studio Porrino In June-July 2018 by Jo Thelemans and Dries van Ende
Mixed at Zenne Studio by Dries van Ende, Luc Evens and Ludovic Jeanmart
Mastered by Karel De Backer
Executive Producer: Ludovic Jeanmart
released June 11, 2018

Лог создания рипа
Exact Audio Copy V1.0 beta 4 from 7. December 2014

EAC extraction logfile from 30. January 2019, 12:18

Gansan / The African Way of Life

Used drive  : ATAPI   iHAS124   E   Adapter: 1  ID: 0

Read mode               : Secure
Utilize accurate stream : Yes
Defeat audio cache      : Yes
Make use of C2 pointers : No

Read offset correction                      : 6
Overread into Lead-In and Lead-Out          : No
Fill up missing offset samples with silence : Yes
Delete leading and trailing silent blocks   : No
Null samples used in CRC calculations       : Yes
Used interface                              : Native Win32 interface for Win NT & 2000
Gap handling                                : Appended to previous track

Used output format              : User Defined Encoder
Selected bitrate                : 768 kBit/s
Quality                         : High
Add ID3 tag                     : No
Command line compressor         : C:\Program Files (x86)\flac-1.3.2-win\win64\flac.exe
Additional command line options : -8 -V -T "ARTIST=%artist%" -T "TITLE=%title%" -T "ALBUM=%albumtitle%" -T "DATE=%year%" -T "TRACKNUMBER=%tracknr%" -T "GENRE=%genre%" -T "COMMENT=ripped by vp_sunset" %source% -o %dest%

TOC of the extracted CD

     Track |   Start  |  Length  | Start sector | End sector
    ---------------------------------------------------------
        1  |  0:00.00 |  6:30.33 |         0    |    29282
        2  |  6:30.33 |  6:36.25 |     29283    |    59007
        3  | 13:06.58 |  5:29.74 |     59008    |    83756
        4  | 18:36.57 |  6:10.74 |     83757    |   111580
        5  | 24:47.56 |  5:56.46 |    111581    |   138326
        6  | 30:44.27 |  7:34.07 |    138327    |   172383
        7  | 38:18.34 |  7:44.56 |    172384    |   207239
        8  | 46:03.15 |  7:13.73 |    207240    |   239787
        9  | 53:17.13 |  6:23.03 |    239788    |   268515

Track  1

     Filename C:\_EAC\01. L'avis de Zoé.wav

     Pre-gap length  0:00:02.00

     Peak level 95.8 %
     Extraction speed 1.8 X
     Track quality 99.9 %
     Test CRC DA91C1BC
     Copy CRC DA91C1BC
     Track not present in AccurateRip database
     Copy OK

Track  2

     Filename C:\_EAC\02. Ouaga - Bobo.wav

     Pre-gap length  0:00:01.26

     Peak level 98.9 %
     Extraction speed 2.5 X
     Track quality 100.0 %
     Test CRC 3B7FE4A7
     Copy CRC 3B7FE4A7
     Track not present in AccurateRip database
     Copy OK

Track  3

     Filename C:\_EAC\03. Sans faute.wav

     Pre-gap length  0:00:01.52

     Peak level 98.9 %
     Extraction speed 2.2 X
     Track quality 99.9 %
     Test CRC C60F4828
     Copy CRC C60F4828
     Track not present in AccurateRip database
     Copy OK

Track  4

     Filename C:\_EAC\04. Kaleidoscope.wav

     Pre-gap length  0:00:02.00

     Peak level 98.9 %
     Extraction speed 3.0 X
     Track quality 100.0 %
     Test CRC ACBD86E1
     Copy CRC ACBD86E1
     Track not present in AccurateRip database
     Copy OK

Track  5

     Filename C:\_EAC\05. Taxi brousse.wav

     Pre-gap length  0:00:01.74

     Peak level 98.8 %
     Extraction speed 3.2 X
     Track quality 100.0 %
     Test CRC 870CFE32
     Copy CRC 870CFE32
     Track not present in AccurateRip database
     Copy OK

Track  6

     Filename C:\_EAC\06. African Way of Life.wav

     Pre-gap length  0:00:02.22

     Peak level 98.9 %
     Extraction speed 3.5 X
     Track quality 100.0 %
     Test CRC A401A735
     Copy CRC A401A735
     Track not present in AccurateRip database
     Copy OK

Track  7

     Filename C:\_EAC\07. Reflection.wav

     Pre-gap length  0:00:01.21

     Peak level 98.9 %
     Extraction speed 3.8 X
     Track quality 100.0 %
     Test CRC D096C5A7
     Copy CRC D096C5A7
     Track not present in AccurateRip database
     Copy OK

Track  8

     Filename C:\_EAC\08. Reminiscence.wav

     Pre-gap length  0:00:01.45

     Peak level 98.9 %
     Extraction speed 4.0 X
     Track quality 100.0 %
     Test CRC 4F09A2E0
     Copy CRC 4F09A2E0
     Track not present in AccurateRip database
     Copy OK

Track  9

     Filename C:\_EAC\09. Coeur d'ébène.wav

     Pre-gap length  0:00:01.00

     Peak level 98.9 %
     Extraction speed 4.1 X
     Track quality 100.0 %
     Test CRC E7711960
     Copy CRC E7711960
     Track not present in AccurateRip database
     Copy OK

None of the tracks are present in the AccurateRip database

No errors occurred

End of status report

---- CUETools DB Plugin V2.1.4

[CTDB TOCID: gKZb.64vQMxrXah1FAPdmcq6vKg-] disk not present in database
Submit result: gKZb.64vQMxrXah1FAPdmcq6vKg- has been uploaded

==== Log checksum 22F1D005D7DC43DB435F189BDFFDB3CA2CFAB2E3CB59F261D9DB64D17F1CFE40 ====
Содержание индексной карты (.CUE)
REM GENRE "World Fusion"
REM DATE 2018
REM DISCID 8A0DFC09
REM COMMENT "ExactAudioCopy v1.0b4"
PERFORMER "Gansan"
TITLE "The African Way of Life"
FILE "01. L'avis de Zoé.wav" WAVE
  TRACK 01 AUDIO
    TITLE "L'avis de Zoe"
    PERFORMER "Gansan"
    INDEX 01 00:00:00
  TRACK 02 AUDIO
    TITLE "Ouaga - Bobo"
    PERFORMER "Gansan"
    INDEX 00 06:29:13
FILE "02. Ouaga - Bobo.wav" WAVE
    INDEX 01 00:00:00
  TRACK 03 AUDIO
    TITLE "Sans faute"
    PERFORMER "Gansan"
    INDEX 00 06:34:61
FILE "03. Sans faute.wav" WAVE
    INDEX 01 00:00:00
  TRACK 04 AUDIO
    TITLE "Kaleidoscope"
    PERFORMER "Gansan"
    INDEX 00 05:27:74
FILE "04. Kaleidoscope.wav" WAVE
    INDEX 01 00:00:00
  TRACK 05 AUDIO
    TITLE "Taxi brousse"
    PERFORMER "Gansan"
    INDEX 00 06:09:18
FILE "05. Taxi brousse.wav" WAVE
    INDEX 01 00:00:00
  TRACK 06 AUDIO
    TITLE "African Way of Life"
    PERFORMER "Gansan"
    INDEX 00 05:54:29
FILE "06. African Way of Life.wav" WAVE
    INDEX 01 00:00:00
  TRACK 07 AUDIO
    TITLE "Reflection"
    PERFORMER "Gansan"
    INDEX 00 07:32:66
FILE "07. Reflection.wav" WAVE
    INDEX 01 00:00:00
  TRACK 08 AUDIO
    TITLE "Reminiscence"
    PERFORMER "Gansan"
    INDEX 00 07:43:22
FILE "08. Reminiscence.wav" WAVE
    INDEX 01 00:00:00
  TRACK 09 AUDIO
    TITLE "Coeur d'ebene"
    PERFORMER "Gansan"
    INDEX 00 07:12:73
FILE "09. Coeur d'ébène.wav" WAVE
    INDEX 01 00:00:00
Лог проверки качества
-----------------------

DON'T MODIFY THIS FILE

-----------------------

PERFORMER: auCDtect Task Manager, ver. 1.6.0 RC1 build 1.6.0.1
Copyright (c) 2008-2010 y-soft. All rights reserved
http://y-soft.org

ANALYZER: auCDtect: CD records authenticity detector, version 0.8.2
Copyright (c) 2004 Oleg Berngardt. All rights reserved.
Copyright (c) 2004 Alexander Djourik. All rights reserved.

FILE: 01. L'avis de Zoé.flac
  Size: 38320508 Hash: 8A0AB643EE1F333DD7D38263D72CC6CA Accuracy: -m0
  Conclusion: CDDA 100%
  Signature: AFB83693A826E7F834D08AC07BC80680540B0C84
FILE: 02. Ouaga - Bobo.flac
  Size: 39957065 Hash: 6373A0654CC26A42296205B0BBCEE882 Accuracy: -m0
  Conclusion: CDDA 100%
  Signature: C0DCC9A99F33EBD1EFB40106530617288D1433C2
FILE: 03. Sans faute.flac
  Size: 31908973 Hash: F71F59D74343405F04B1C6854855E4AD Accuracy: -m0
  Conclusion: CDDA 100%
  Signature: 7CEF6E642635C1F4D0046CEBB1AD2440E3CA89EC
FILE: 04. Kaleidoscope.flac
  Size: 34953066 Hash: B841A32A0965A3023D63D74AA4ACE073 Accuracy: -m0
  Conclusion: CDDA 100%
  Signature: F6ED462D8E6366E7D065D5AFFD2B9671F70FDF7A
FILE: 05. Taxi brousse.flac
  Size: 31146460 Hash: C2D245DF032A43B59797BD235DD61500 Accuracy: -m0
  Conclusion: CDDA 100%
  Signature: EEE9006AEFDEB41333DC73272A5EA05C99B302C3
FILE: 06. African Way of Life.flac
  Size: 45226252 Hash: 4830F10FDA93AC67EF41234387812C6A Accuracy: -m0
  Conclusion: CDDA 100%
  Signature: 38D4425D9E72F48A975B51BE6BAEC406079617ED
FILE: 07. Reflection.flac
  Size: 45344917 Hash: 001B0BAF18378AEA8EA9E2DD9690BF5F Accuracy: -m0
  Conclusion: CDDA 100%
  Signature: 9D44B65365ED78601A4ACDDF1D63F86C98D0B01A
FILE: 08. Reminiscence.flac
  Size: 38359015 Hash: 2BA38FEE3C44E7E379025E4D1130C43D Accuracy: -m0
  Conclusion: CDDA 100%
  Signature: D8FAFF74F80CDDB3229CB815F196B3A807249F8C
FILE: 09. Coeur d'ébène.flac
  Size: 38390143 Hash: 27BC61F8730D88AB4B8C0BB430B56A5C Accuracy: -m0
  Conclusion: CDDA 100%
  Signature: 4CD913595D03DA0058355DFD4E9DF973DF86539A
Скачивание доступно после регистрации!!
Приватный:
Нет (DHT включён)
Размер:
409.15 Мб (429,027,868 байт) » файлов: 29
Участники:
5 раздают, 0 качают (5 участников всего)
Внешние участники:
5 раздают, 2 качают (7 участников всего) [ Обновить ]
22:42
24
Нет комментариев. Ваш будет первым!