Поиск

2018 Sayaka Tsuruta - Whisper Not {Venus VHGD-309} [DSD64 ISO]

2018 Sayaka Tsuruta - Whisper Not {Venus VHGD-309} [DSD64 ISO]
Стили:
Дата записи диска:
26 февраля - 28 февраля 2018
Место записи:
Tedesco Studio, New York City, NY, USA
Дата издания диска:
18 апреля 2018
Издатель (лейбл):
Номер по каталогу:
VHGD-309
Носитель:
SACD
Формат:
DSD
Тип рипа:
image
Контейнер:
ISO (*.iso)
Количество каналов:
2.0
Разрядность/ЧД:
64 (2,8 MHz/1 Bit)
Битрейт аудио:
lossless
Время звучания:
01:03:12
Наличие сканов:
да

01. My Funny Valentine  05:42
02. So In Love  10:01
03. Just One Of Those Things  03:10
04. The Look Of Love  03:58
05. I Will Wait For You  06:04
06. Left Alone  03:20
07. My One And Only Love  05:08
08. I Wish You Love  03:30
09. Whisper Not  04:23
10. You Must Believe In Spring  04:47
11. I'm A Fool To Want You  06:43
12. Harlem Nocturne  06:13

Состав:
  • Sayaka Tsuruta — vocal
  • Ted Rosenthal — piano
  • Martin Wind — bass
  • Matt Wilson — drums
  • Ken Peplowski — clarinet & tenor sax
Лог проверки качества
foobar2000 1.6.2 / Замер динамического диапазона (DR) 1.1.1
Дата отчёта:  2021-01-17 00:56:06
--------------------------------------------------------------------------------
Анализ:   SAYAKA TSURUTA / Whisper Not
--------------------------------------------------------------------------------
DR         Пики         RMS           Продолжительность трека
--------------------------------------------------------------------------------
DR7       -5.54 дБ   -14.98 дБ      5:43 01-My Funny Valentine
DR5       -5.29 дБ   -11.97 дБ     10:02 02-So In Love
DR5       -5.28 дБ   -12.37 дБ      3:12 03-Just One Of Those Things
DR6       -5.28 дБ   -12.56 дБ      3:59 04-The Look Of Love
DR6       -5.72 дБ   -13.05 дБ      6:06 05-I Will Wait For You
DR6       -5.64 дБ   -13.76 дБ      3:22 06-Left Alone
DR5       -5.37 дБ   -11.92 дБ      5:08 07-My One And Only Love
DR6       -5.27 дБ   -13.54 дБ      3:30 08-I Wish You Love
DR6       -5.21 дБ   -11.87 дБ      4:25 09-Whisper Not
DR6       -5.59 дБ   -13.85 дБ      4:48 10-You Must Believe In Spring
DR5       -5.61 дБ   -13.12 дБ      6:44 11-I'm A Fool To Want You
DR5       -5.48 дБ   -12.24 дБ      6:14 12-Harlem Nocturne
--------------------------------------------------------------------------------
Количество треков: 12
Реальные значения DR: DR6
Частота:  2822400 Гц / Частота PCM: 352800 Гц
Каналов:  2
Разрядность:   1
Битрейт:  5645 кбит/с
Кодек:   DSD64
================================================================================
Приватный:
Нет (DHT включён)
Размер:
2.55 Гб (2,735,968,871 байт) » файлов: 5
Участники:
0 раздают, 0 качают (0 участников всего)
Внешние участники:
5 раздают, 1 качают (6 участников всего) [ Обновить ]
14:13
594
Нет комментариев. Ваш будет первым!