Поиск

1979 Lloyd McNeill - Tori (2021) {Soul Jazz} [24-44.1]

1979 Lloyd McNeill - Tori (2021) {Soul Jazz} [24-44.1]
Дата записи диска:
14 июля 1978
Место записи:
Regent Sound Studios, Inc.
Дата переиздания диска:
23 июля 2021
Носитель:
WEB
Формат:
PCM
Тип рипа:
tracks
Контейнер:
FLAC (*.flac)
Количество каналов:
2.0
Разрядность/ЧД:
24/44,1
Битрейт аудио:
lossless
Наличие сканов:
только обложка

1. O Mercado (Brazilian Market)  04:54
2. Tori (Segment One)  01:37
3. Tzigane  11:01
4. Tori (Segment Two)  00:42
5. Sambinha  05:24
6. Time Still / Passaro - Pifaro (Flute Bird)  08:53
7. Tori (Segment Three)  01:57
8. Tranquil  11:38

Состав:
  • Howard Johnson     Tuba
  • John La Barbera     Guitar (Acoustic)
  • Victor Lewis     Drums
  • Vince McGarry     Engineer, Mixing Engineer
  • Lloyd McNeill     Arranger, Composer, Flute, Producer
  • Dom Um Romão     Percussion
  • Dom Salvador     Piano
  • Amauri Tristao     Guitar (Acoustic)
  • Naná Vasconcelos     Percussion, Vocals
  • Buster Williams     Bass
Лог проверки качества
foobar2000 1.4.2 / Dynamic Range Meter 1.1.1
log date: 2021-07-22 19:08:18
--------------------------------------------------------------------------------
Analyzed: Lloyd McNeill / Tori
--------------------------------------------------------------------------------
DR         Peak         RMS     Duration Track
--------------------------------------------------------------------------------
DR12      -1.30 dB   -14.71 dB      4:55 01-O Mercado (Brazilian Market)
DR8       -1.70 dB   -15.89 dB      1:37 02-Tori (Segment One)
DR13      -0.75 dB   -16.05 dB     11:02 03-Tzigane
DR10      -4.06 dB   -18.10 dB      0:43 04-Tori (Segment Two)
DR12      -1.30 dB   -15.07 dB      5:24 05-Sambinha
DR12      -0.30 dB   -15.47 dB      8:54 06-Time Still / Passaro - Pifaro (Flute Bird)
DR9       -3.34 dB   -18.74 dB      1:57 07-Tori (Segment Three)
DR12      -0.43 dB   -16.37 dB     11:38 08-Tranquil
--------------------------------------------------------------------------------
Number of tracks:  8
Official DR value: DR11
Samplerate:        44100 Hz
Channels:          2
Bits per sample:   24
Bitrate:           876 kbps
Codec:             FLAC
================================================================================
13:05
571
Нет комментариев. Ваш будет первым!