Поиск

2018 Sarah Buechi - Contradiction Of Happiness {Intakt} [24-44,1]

2018 Sarah Buechi - Contradiction Of Happiness {Intakt} [24-44,1]
Издатель (лейбл):

Состав:
  • Sarah Buechi - vocals
  • Stefan Aeby - piano
  • André Pousaz - double bass
  • Lionel Friedli - drums
  • Estelle Beiner - violin
  • Isabelle Gottraux - viola
  • Sara Oswald - cello
  • Recorded by Andy Neresheimer

Формат записи/Источник записи: [TR24][OF]
Наличие водяных знаков: Нет
Дата записи: 8-10 июня 2017
Место записи: Hardstudios Winterthur
Год издания/переиздания диска: 2018
Продолжительность: 57:10
Наличие сканов в содержимом раздачи: Только обложка альбома
Контейнер: FLAC (*.flac)
Тип рипа: tracks
Разрядность: 24/44,1
Формат: PCM
Количество каналов: 2.0
Источник: e-onkyo.com

Треклист:
01. Child Of Our Times (4:42)
02. Never Enough (5:49)
03. After We've Kissed (8:01)
04. Fahamore (Paradise) (8:25)
05. Wheel Of Temptation (5:23)
06. Here And Now (5:25)
07. The Word (7:21)
08. Snow Trail (7:03)
09. Schönschte Obigstärn (5:01)

 
Лог проверки качества
foobar2000 1.3.9 / Dynamic Range Meter 1.1.1
log date: 2018-05-10 12:38:52
--------------------------------------------------------------------------------
Analyzed: Sarah Buechi / Contradiction Of Happiness
--------------------------------------------------------------------------------
DR         Peak         RMS     Duration Track
--------------------------------------------------------------------------------
DR10      -1.10 dB   -14.56 dB      4:42 01-Child Of Our Times
DR10      -0.17 dB   -14.47 dB      5:49 02-Never Enough
DR9       -0.17 dB   -12.47 dB      8:01 03-After We've Kissed
DR11      -0.17 dB   -15.67 dB      8:25 04-Fahamore (Paradise)
DR11      -0.17 dB   -14.59 dB      5:23 05-Wheel Of Temptation
DR12      -0.96 dB   -17.66 dB      5:25 06-Here And Now
DR12      -0.17 dB   -14.78 dB      7:21 07-The Word
DR11      -0.37 dB   -15.54 dB      7:03 08-Snow Trail
DR12      -1.80 dB   -18.52 dB      5:01 09-Schönschte Obigstärn
--------------------------------------------------------------------------------
Number of tracks:  9
Official DR value: DR11
Samplerate:        44100 Hz
Channels:          2
Bits per sample:   24
Bitrate:           1478 kbps
Codec:             FLAC
================================================================================

 

Скачивание доступно после регистрации!!
Приватный:
Нет (DHT включён)
Размер:
636.39 Мб (667,301,674 байт) » файлов: 12
Участники:
9 раздают, 0 качают (9 участников всего)
Внешние участники:
--- [ Обновить ]
19:19
53
RSS
Нет комментариев. Ваш будет первым!