Поиск

2017 Jean-Marc Foltz & Philippe Mouratoglou - Legends Of The Fall {Vision Fugitive} [24-88,2]

2017 Jean-Marc Foltz & Philippe Mouratoglou - Legends Of The Fall {Vision Fugitive} [24-88,2]
Стили:
Состав:
  • Jean-Marc Foltz - bass clarinet
  • Philippe Mouratoglou - guitar
  • Ramon Lopez - drums (1, 3, 6, 10)

Формат записи/Источник записи: [TR24][OF]
Наличие водяных знаков: Нет
Дата записи: весна 2017
Место записи: Studios La Buissonne, Pernes-les-Fontaines
Год издания/переиздания диска: 2017
Издатель (лейбл): Vision Fugitive
Продолжительность: 44:04
Наличие сканов в содержимом раздачи: Только обложка альбома
Контейнер: FLAC (*.flac)
Тип рипа: tracks
Разрядность: 24/88,2
Формат: PCM
Количество каналов: 2.0
Источник: qobuz.com

Треклист:
01. Solar Wind (4:22)
02. Fathers Tales (4:17)
03. Cold Blue 44 (5:23)
04. Heavenward (3:35)
05. Mountain Ghosts (7:45)
06. Garland (3:13)
07. Scorpion's Brush (4:12)
08. Sitting Still (3:01)
09. Night Hunt (4:02)
10. Legends Of The Fall (4:13)

 
Лог проверки качества
foobar2000 1.3.9 / Dynamic Range Meter 1.1.1
log date: 2018-05-09 17:21:11
--------------------------------------------------------------------------------
Analyzed: Jean-Marc Foltz / Legends Of The Fall
--------------------------------------------------------------------------------
DR         Peak         RMS     Duration Track
--------------------------------------------------------------------------------
DR9       -0.24 dB   -13.46 dB      4:22 01-Solar Wind
DR10      -1.02 dB   -17.38 dB      4:17 02-Fathers Tales
DR10      -0.22 dB   -15.06 dB      5:23 03-Cold Blue 44
DR10      -0.27 dB   -15.39 dB      3:35 04-Heavenward
DR11      -0.22 dB   -16.04 dB      7:45 05-Mountain Ghosts
DR9       -0.21 dB   -12.91 dB      3:13 06-Garland
DR12      -0.24 dB   -16.33 dB      4:12 07-Scorpion's Brush
DR10      -0.33 dB   -15.94 dB      3:01 08-Sitting Still
DR10      -0.24 dB   -14.17 dB      4:02 09-Night Hunt
DR9       -0.26 dB   -14.97 dB      4:13 10-Legends Of The Fall
--------------------------------------------------------------------------------
Number of tracks:  10
Official DR value: DR10
Samplerate:        88200 Hz
Channels:          2
Bits per sample:   24
Bitrate:           2347 kbps
Codec:             FLAC
================================================================================

 

Приватный:
Нет (DHT включён)
Размер:
738.30 Мб (774,159,328 байт) » файлов: 14
Участники:
6 раздают, 0 качают (6 участников всего)
Внешние участники:
--- [ Обновить ]
Скорость:
0/c 176.00 байт/c
18:56
28
RSS
Нет комментариев. Ваш будет первым!