Поиск

2018 Nigel Kennedy - Kennedy Meets Gershwin {Warner Classics} [24-96]

2018 Nigel Kennedy - Kennedy Meets Gershwin {Warner Classics} [24-96]
Стили:

Формат записи/Источник записи: [TR24][OF]
Наличие водяных знаков: Нет
Год издания/переиздания диска: 2018
Издатель (лейбл): Warner Classics
Продолжительность: 63:02
Контейнер: FLAC (*.flac)
Тип рипа: tracks
Разрядность: 24/96
Формат: PCM
Количество каналов: 2.0
Наличие сканов в содержимом раздачи: Буклет PDF
Источник: qobuz.com

Треклист:
01. Rhapsody In Claret & Blue (2:36)
02. Our Love Is Here To Stay (4:37)
03. The Man I Love (8:20)
04. Summertime (5:47)
05. Time (3:18)
06. Porgy & Bess (8:29)
07. How Long Has This Been Going On (5:54)
08. Fantasy (10:07)
09. They Can't Take That Away From Me (6:44)
10. Oh, Lady Be Good! (7:11)

 
Лог проверки качества
foobar2000 1.3.9 / Dynamic Range Meter 1.1.1
log date: 2018-05-12 13:13:37
--------------------------------------------------------------------------------
Analyzed: Nigel Kennedy / Kennedy Meets Gershwin
--------------------------------------------------------------------------------
DR         Peak         RMS     Duration Track
--------------------------------------------------------------------------------
DR10      -0.02 dB   -13.56 dB      2:36 01-Rhapsody In Claret & Blue
DR12      -0.02 dB   -15.35 dB      4:37 02-Our Love Is Here To Stay
DR11      -0.02 dB   -15.05 dB      8:20 03-The Man I Love
DR12      -1.67 dB   -18.13 dB      5:47 04-Summertime
DR8       -0.02 dB   -11.88 dB      3:18 05-Time
DR10      -0.02 dB   -13.95 dB      8:29 06-Porgy & Bess
DR11      -0.02 dB   -15.09 dB      5:54 07-How Long Has This Been Going On
DR12      -0.02 dB   -15.11 dB     10:07 08-Fantasy
DR14      -0.02 dB   -17.42 dB      6:44 09-They Can't Take That Away From Me
DR10      -0.02 dB   -13.31 dB      7:11 10-Oh, Lady Be Good!
--------------------------------------------------------------------------------
Number of tracks:  10
Official DR value: DR11
Samplerate:        96000 Hz
Channels:          2
Bits per sample:   24
Bitrate:           2584 kbps
Codec:             FLAC
================================================================================

 

Скачивание доступно после регистрации!!
Приватный:
Нет (DHT включён)
Размер:
1.08 Гб (1,162,891,171 байт) » файлов: 14
Участники:
2 раздают, 0 качают (2 участников всего)
Внешние участники:
--- [ Обновить ]
00:00
31
RSS
Нет комментариев. Ваш будет первым!