Поиск

2018 De-Phazz - Black White Mono {Phazz-A-Delic} [24-44,1]

2018 De-Phazz - Black White Mono {Phazz-A-Delic} [24-44,1]
Стили:

Формат записи/Источник записи: [TR24][OF]
Наличие водяных знаков: Нет
Год издания/переиздания диска: 11 мая 2018
Жанр: Nu Jazz
Издатель (лейбл): Phazz-A-Delic
Продолжительность: 63:05
Контейнер: FLAC (*.flac)
Тип рипа: tracks
Разрядность: 24/44,1
Формат: PCM
Количество каналов: 2.0
Источник: qobuz.com
Наличие сканов в содержимом раздачи: Только обложка альбома

Треклист:
01. Spoiled (3:47)
02. Esperance (3:50)
03. Love Vampire (3:20)
04. May (4:09)
05. I Smell A Rat (4:44)
06. Silent Lamb (3:24)
07. As The Word Turns (4:32)
08. Wailing Daddy (3:48)
09. Foul & Miss (4:53)
10. Ma Cherry Bo (5:05)
11. No Good No Trouble (2:36)
12. In My Blood (2:46)
13. The Power Of Maybe (4:07)
14. All Inclusive (5:04)
15. No Bud (3:32)
16. Funk Kid (3:29)

 
Лог проверки качества
foobar2000 1.3.9 / Dynamic Range Meter 1.1.1
log date: 2018-05-12 11:43:01
--------------------------------------------------------------------------------
Analyzed: De-Phazz / Black White Mono
--------------------------------------------------------------------------------
DR         Peak         RMS     Duration Track
--------------------------------------------------------------------------------
DR7       -0.20 dB    -8.86 dB      3:47 01-Spoiled
DR8       -0.20 dB    -8.72 dB      3:50 02-Esperance
DR8       -0.30 dB    -9.38 dB      3:20 03-Love Vampire
DR9       -0.10 dB   -10.16 dB      4:09 04-May
DR8       -1.10 dB   -10.39 dB      4:44 05-I Smell A Rat
DR8       -0.30 dB   -10.23 dB      3:24 06-Silent Lamb
DR7       -0.30 dB    -8.32 dB      4:32 07-As The Word Turns
DR9       -0.30 dB   -10.59 dB      3:48 08-Wailing Daddy
DR7       -0.20 dB    -8.66 dB      4:53 09-Foul & Miss
DR8       -0.10 dB    -9.46 dB      5:05 10-Ma Cherry Bo
DR9       -0.30 dB   -10.34 dB      2:36 11-No Good No Trouble
DR7       -0.30 dB    -8.40 dB      2:46 12-In My Blood
DR8       -0.39 dB   -10.02 dB      4:07 13-The Power Of Maybe
DR7       -0.20 dB    -7.95 dB      5:04 14-All Inclusive
DR7       -0.40 dB    -8.21 dB      3:32 15-No Bud
DR9       -0.29 dB   -10.28 dB      3:29 16-Funk Kid
--------------------------------------------------------------------------------
Number of tracks:  16
Official DR value: DR8
Samplerate:        44100 Hz
Channels:          2
Bits per sample:   24
Bitrate:           1605 kbps
Codec:             FLAC
================================================================================

 

Приватный:
Нет (DHT включён)
Размер:
696.70 Мб (730,539,514 байт) » файлов: 20
Участники:
1 раздают, 0 качают (1 участников всего)
Внешние участники:
--- [ Обновить ]
Скорость:
0/c 7.35 Кб/c
20:22
32
RSS
Нет комментариев. Ваш будет первым!