Поиск

2018 Moon - Kiss Me {Universal} [24-96]

2018 Moon - Kiss Me {Universal} [24-96]
Стили:
Издатель (лейбл):

Формат записи/Источник записи: [TR24][OF]
Наличие водяных знаков: Нет
Год издания/переиздания диска: 2018
Продолжительность: 00:46:06
Наличие сканов в содержимом раздачи: Front
Источник (релизер): qobuz
Контейнер: FLAC (*.flac)
Тип рипа: tracks
Разрядность: 24/96
Формат: PCM
Количество каналов: 2.0

Треклист:
01. The April Fools
02. Brazasia
03. Kiss Of Life
04. Quando, Quando, Quando
05. Kiss Me
06. In A Sentimental Mood
07. Speak Low
08. Something Stupid
09. Private Eyes
10. Kizuna

 
DR Log
foobar2000 1.1.10 / Dynamic Range Meter 1.1.1
log date: 2018-02-08 11:33:20
--------------------------------------------------------------------------------
Analyzed: Moon / Kiss Me
--------------------------------------------------------------------------------
DR         Peak         RMS     Duration Track
--------------------------------------------------------------------------------
DR9       -0.10 dB   -11.02 dB      5:11 ?-The April Fools
DR8       -0.10 dB    -9.17 dB      4:22 ?-Brazasia
DR8       -0.10 dB    -9.21 dB      5:49 ?-Kiss Of Life
DR10      -0.18 dB   -12.86 dB      4:54 ?-Quando, Quando, Quando
DR8       -0.69 dB   -10.95 dB      3:53 ?-Kiss Me
DR10      -0.10 dB   -13.95 dB      5:27 ?-In A Sentimental Mood
DR9       -0.10 dB   -10.66 dB      4:16 ?-Speak Low
DR8       -0.10 dB    -9.47 dB      3:47 ?-Something Stupid
DR9       -0.10 dB   -10.67 dB      3:37 ?-Private Eyes
DR10      -0.11 dB   -13.88 dB      4:50 ?-Kizuna
--------------------------------------------------------------------------------
Number of tracks:  10
Official DR value: DR9
Samplerate:        96000 Hz
Channels:          2
Bits per sample:   24
Bitrate:           2666 kbps
Codec:             FLAC
================================================================================

 

Приватный:
Нет (DHT включён)
Размер:
935.50 Мб (980,944,489 байт) » файлов: 12
Участники:
3 раздают, 0 качают (3 участников всего)
Внешние участники:
--- [ Обновить ]
22:12
56
RSS
Нет комментариев. Ваш будет первым!