Поиск

2018 Melody Gardot - Live In Europe {Decca} [24-48]

2018 Melody Gardot - Live In Europe {Decca} [24-48]
Стили:
Издатель (лейбл):

Формат записи/Источник записи: [TR24][OF]
Наличие водяных знаков: Нет
Год издания/переиздания диска: 2018
Продолжительность: 01:45:48
Наличие сканов в содержимом раздачи: Front
Источник (релизер): qobuz
Контейнер: FLAC (*.flac)
Тип рипа: tracks
Разрядность: 24/48
Формат: PCM
Количество каналов: 2.0

Треклист:
01. Our Love Is Easy 06:22
02. Baby I'm A Fool 04:24
03. The Rain 11:22
04. Deep Within The Corners Of My Mind 06:56
05. So Long 05:35
06. My One And Only Thrill 07:33
07. Lisboa 07:06
08. Over The Rainbow 05:06
09. (Monologue) Special Spot 02:09
10. Baby I'm A Fool 04:03
11. Les etoiles 03:23
12. Goodbye 04:05
13. (Monologue) Tchao Baby 00:22
14. March For Mingus 11:13
15. Bad News 06:29
16. Who Will Comfort Me 07:19
17. Morning Sun 12:22

 
Лог проверки качества
foobar2000 1.3.7 / Dynamic Range Meter 1.1.1
log date: 2018-02-09 02:18:32
--------------------------------------------------------------------------------
Analyzed: Melody Gardot / Live In Europe
--------------------------------------------------------------------------------
DR         Peak         RMS     Duration Track
--------------------------------------------------------------------------------
DR10      -2.37 dB   -16.15 dB      6:22 01-Our Love Is Easy
DR10      -2.38 dB   -15.06 dB      4:24 02-Baby I'm A Fool
DR9       -0.01 dB   -11.81 dB     11:22 03-The Rain
DR12      -1.08 dB   -16.14 dB      6:56 04-Deep Within The Corners Of My Mind
DR11      -0.01 dB   -13.47 dB      5:35 05-So Long
DR11      -0.01 dB   -15.21 dB      7:33 06-My One And Only Thrill
DR11      -0.01 dB   -13.66 dB      7:07 07-Lisboa
DR12      -0.12 dB   -13.88 dB      5:07 08-Over The Rainbow
DR13      -0.01 dB   -17.92 dB      2:10 09-(Monologue) Special Spot
DR12      -0.42 dB   -15.38 dB      4:04 10-Baby I'm A Fool
DR11      -0.01 dB   -12.33 dB      3:23 11-Les etoiles
DR10      -0.01 dB   -13.11 dB      4:05 12-Goodbye
DR12     -12.48 dB   -28.74 dB      0:22 13-(Monologue) Tchao Baby
DR9       -0.01 dB   -11.92 dB     11:14 14-March For Mingus
DR9        0.00 dB   -10.83 dB      6:29 15-Bad News
DR8       -0.01 dB    -9.89 dB      7:20 16-Who Will Comfort Me
DR8       -0.01 dB   -11.90 dB     12:23 17-Morning Sun
--------------------------------------------------------------------------------
Number of tracks:  17
Official DR value: DR11
Samplerate:        48000 Hz
Channels:          2
Bits per sample:   24
Bitrate:           1667 kbps
Codec:             FLAC
================================================================================

 

Скачивание доступно после регистрации!!
Приватный:
Нет (DHT включён)
Размер:
1.22 Гб (1,310,114,277 байт) » файлов: 19
Участники:
2 раздают, 0 качают (2 участников всего)
Внешние участники:
--- [ Обновить ]
22:20
84
RSS
Нет комментариев. Ваш будет первым!