Поиск

2018 Mike LeDonne - From The Heart {Savant} [24-44,1]

2018 Mike LeDonne - From The Heart {Savant} [24-44,1]
Стили:
Издатель (лейбл):

Состав:
  • Mike LeDonne - organ
  • Eric Alexander - tenor saxophone
  • Peter Bernstein - guitar
  • Joe Farnsworth - drums (1, 3, 5-8)
  • Mike Clark - drums (2, 4)

Формат записи/Источник записи: [TR24][OF]
Наличие водяных знаков: Нет
Дата записи: 8 января 2018
Место записи: Trading 8s Recording Studio, Paramus, NJ
Год издания/переиздания диска: 2018
Продолжительность: 56:43
Наличие сканов в содержимом раздачи: Буклет PDF
Контейнер: FLAC (*.flac)
Тип рипа: tracks
Разрядность: 24/44,1
Формат: PCM
Количество каналов: 2.0
Источник: qobuz.com

Треклист:
01. Someday (5:42)
02. From The Heart (8:22)
03. You’ll Never Know What You Mean To Me (6:58)
04. Here Comes The Doctor (7:35)
05. Come Back Baby (9:05)
06. Fun Day (6:30)
07. You Send Me (6:07)
08. Then Came You (6:25)

 
Лог проверки качества
foobar2000 1.3.9 / Dynamic Range Meter 1.1.1
log date: 2018-05-15 20:49:41
--------------------------------------------------------------------------------
Analyzed: Mike LeDonne / From The Heart
--------------------------------------------------------------------------------
DR         Peak         RMS     Duration Track
--------------------------------------------------------------------------------
DR9       -0.70 dB   -11.71 dB      5:42 01-Someday
DR10      -0.70 dB   -12.84 dB      8:22 02-From The Heart
DR11      -0.70 dB   -13.32 dB      6:58 03-You’ll Never Know What You Mean To Me
DR10      -0.70 dB   -11.94 dB      7:35 04-Here Comes The Doctor
DR11      -0.70 dB   -14.31 dB      9:05 05-Come Back Baby
DR10      -0.70 dB   -12.93 dB      6:30 06-Fun Day
DR12      -0.70 dB   -14.76 dB      6:07 07-You Send Me
DR10      -0.70 dB   -12.17 dB      6:25 08-Then Came You
--------------------------------------------------------------------------------
Number of tracks:  8
Official DR value: DR10
Samplerate:        44100 Hz
Channels:          2
Bits per sample:   24
Bitrate:           1648 kbps
Codec:             FLAC
================================================================================

 

Приватный:
Нет (DHT включён)
Размер:
653.91 Мб (685,677,137 байт) » файлов: 12
Участники:
3 раздают, 1 качают (4 участников всего)
Внешние участники:
--- [ Обновить ]
12:50
33
RSS
Нет комментариев. Ваш будет первым!