Поиск

2018 Freddy Cole - My Mood Is You {HighNote} [24-96]

2018 Freddy Cole - My Mood Is You {HighNote} [24-96]
Стили:
Издатель (лейбл):

Треклист:

Формат записи/Источник записи: [TR24][OF]
Наличие водяных знаков: Нет
Дата записи: 26 и 27 сентября 2017
Место записи: Teaneck Sound Studio, Teaneck, NJ
Год издания/переиздания диска: 2018
Продолжительность: 52:07
Наличие сканов в содержимом раздачи: Буклет PDF
Контейнер: FLAC (*.flac)
Тип рипа: tracks
Разрядность: 24/96
Формат: PCM
Количество каналов: 2.0
Источник: qobuz.com

Треклист:
01. My Mood Is You (5:46)
02. Temptation (4:53)
03. Almost In Love (5:37)
04. I'll Always Leave The Door A Little Open (5:44)
05. First Began (6:19)
06. They Didn't Believe Me (4:33)
07. My Heart Tells Me (6:30)
08. The Lonely One (5:11)
09. Love Like This Can't Last (4:16)
10. Marie (3:19)

 
Лог проверки качества
foobar2000 1.3.9 / Dynamic Range Meter 1.1.1
log date: 2018-05-15 23:02:24
--------------------------------------------------------------------------------
Analyzed: Freddy Cole / My Mood Is You
--------------------------------------------------------------------------------
DR         Peak         RMS     Duration Track
--------------------------------------------------------------------------------
DR12      -1.60 dB   -15.95 dB      5:46 01-My Mood Is You
DR9       -0.46 dB   -12.13 dB      4:53 02-Temptation
DR10      -2.61 dB   -14.95 dB      5:37 03-Almost In Love
DR11      -0.44 dB   -14.01 dB      5:44 04-I'll Always Leave The Door A Little Open
DR10      -1.09 dB   -13.34 dB      6:19 05-First Began
DR12      -0.91 dB   -16.10 dB      4:33 06-They Didn't Believe Me
DR11      -1.09 dB   -14.21 dB      6:30 07-My Heart Tells Me
DR11      -2.04 dB   -16.67 dB      5:11 08-The Lonely One
DR10      -0.46 dB   -12.60 dB      4:16 09-Love Like This Can't Last
DR10      -1.59 dB   -14.88 dB      3:19 10-Marie
--------------------------------------------------------------------------------
Number of tracks:  10
Official DR value: DR11
Samplerate:        96000 Hz
Channels:          2
Bits per sample:   24
Bitrate:           2779 kbps
Codec:             FLAC
================================================================================

 

Приватный:
Нет (DHT включён)
Размер:
1.03 Гб (1,107,193,297 байт) » файлов: 14
Участники:
3 раздают, 1 качают (4 участников всего)
Внешние участники:
14 раздают, 5 качают (19 участников всего) [ Обновить ]
Никого нет на раздаче - пишите личное сообщение M0p94ok
No seeders - write personal message to M0p94ok
13:06
146
Нет комментариев. Ваш будет первым!