Поиск

2018 Michael Franks - The Music In My Head {Shanachie 5459}

2018 Michael Franks - The Music In My Head {Shanachie 5459}
Стили:
Издатель (лейбл):

Носитель: CD
Страна-производитель диска (релиза): USA
Год издания: 2018
Номер по каталогу: 5459
Страна исполнителя (группы): USA
Аудиокодек: FLAC (*.flac)
Тип рипа: image+.cue
Битрейт аудио: lossless
Продолжительность: 52:46
Источник (релизер): izia1956
Наличие сканов в содержимом раздачи: да

Треклист:
01. As Long As We’re Both Together (6:04)
02. Suddenly Sci-Fi (4:35)
03. The Idea Of A Tree (5:05)
04. Bluebird Blue (4:23)
05. To Spend The Day With You (6:13)
06. Bebop Headshop (4:21)
07. Where You Hid The Truth (5:52)
08. The Music In My Head (4:57)
09. Candleglow (5:43)
10. Waterfall (5:28)

 
Лог создания рипа
Exact Audio Copy V1.3 from 2. September 2016
Отчёт EAC об извлечении, выполненном 10. июня 2018, 8:25
Michael Franks / The Music In My Head
Дисковод: HL-DT-STDVD+-RW GH82N   Adapter: 1  ID: 0
Режим чтения                 : Достоверность
Использование точного потока : Да
Отключение кэша аудио        : Да
Использование указателей C2  : Нет
Коррекция смещения при чтении                     : 667
Способность читать области Lead-in и Lead-out     : Нет
Заполнение пропущенных сэмплов тишиной            : Да
Удаление блоков с тишиной в начале и конце        : Нет
При вычислениях CRC использовались нулевые сэмплы : Да
Интерфейс                                         : Встроенный Win32-интерфейс для Win NT/2000
Выходной формат          : Пользовательский кодировщик
Выбранный битрейт        : 1024 kBit/s
Качество                 : Высокий
Добавление ID3-тега      : Нет
Утилита сжатия           : C:\Program Files (x86)\Exact Audio Copy\FLAC\FLAC.EXE
Дополнительные параметры : -8 -V -T "ARTIST=%artist%" -T "ALBUM=%albumtitle%" -T "DATE=%year%" -T "GENRE=%genre%" -T "COMMENT=ripped by izia1956" %source%
TOC извлечённого CD
     Трек |   Старт  | Длительность | Начальный сектор | Конечный сектор
    ---------------------------------------------------------------------
       1  |  0:00.00 |    6:04.53   |           0      |      27352
       2  |  6:04.53 |    4:35.61   |       27353      |      48038
       3  | 10:40.39 |    5:05.54   |       48039      |      70967
       4  | 15:46.18 |    4:23.58   |       70968      |      90750
       5  | 20:10.01 |    6:13.71   |       90751      |     118796
       6  | 26:23.72 |    4:21.33   |      118797      |     138404
       7  | 30:45.30 |    5:52.04   |      138405      |     164808
       8  | 36:37.34 |    4:57.24   |      164809      |     187107
       9  | 41:34.58 |    5:43.12   |      187108      |     212844
      10  | 47:17.70 |    5:28.15   |      212845      |     237459
Характеристики диапазона извлечения и сообщения об ошибках
Выбранный диапазон
     Имя файла E:\BitComet\Michael Franks - The Music In My Head (2018)\Michael Franks - The Music In My Head.wav
     Пиковый уровень 100.0 %
     Скорость извлечения 3.2 X
     Качество диапазона 100.0 %
     CRC теста DDCC9093
     CRC копии DDCC9093
     Копирование... OK
Ошибок не произошло
AccurateRip: сводка
Трек  1  отсутствует в базе данных
Трек  2  отсутствует в базе данных
Трек  3  отсутствует в базе данных
Трек  4  отсутствует в базе данных
Трек  5  отсутствует в базе данных
Трек  6  отсутствует в базе данных
Трек  7  отсутствует в базе данных
Трек  8  отсутствует в базе данных
Трек  9  отсутствует в базе данных
Трек 10  отсутствует в базе данных
Ни одного трека нет в базе AccurateRip
Конец отчёта
==== Контрольная сумма отчёта FEA26B2D919617196F7D5803567937138F9C90DDE9ED066B9F92049292CCB2B1 ====
 
Содержание индексной карты (.CUE)
REM GENRE Jazz
REM DATE 2018
REM DISCID 9F0C5E0A
REM COMMENT "ExactAudioCopy v1.3"
PERFORMER "Michael Franks"
TITLE "The Music In My Head"
REM COMPOSER "Michael Franks"
FILE "Michael Franks - The Music In My Head.flac" WAVE
  TRACK 01 AUDIO
    TITLE "As Long As We're Both Together"
    PERFORMER "Michael Franks"
    REM COMPOSER "Michael Franks"
    INDEX 01 00:00:00
  TRACK 02 AUDIO
    TITLE "Suddenly Sci-Fi"
    PERFORMER "Michael Franks"
    REM COMPOSER "Michael Franks"
    INDEX 01 06:04:53
  TRACK 03 AUDIO
    TITLE "The Idea of a Tree"
    PERFORMER "Michael Franks"
    REM COMPOSER "Michael Franks"
    INDEX 01 10:40:39
  TRACK 04 AUDIO
    TITLE "Bluebird Blue"
    PERFORMER "Michael Franks"
    REM COMPOSER "Michael Franks"
    INDEX 01 15:46:18
  TRACK 05 AUDIO
    TITLE "To Spend the Day With You"
    PERFORMER "Michael Franks"
    REM COMPOSER "Michael Franks"
    INDEX 01 20:10:01
  TRACK 06 AUDIO
    TITLE "Bebop Headshop"
    PERFORMER "Michael Franks"
    REM COMPOSER "Michael Franks"
    INDEX 01 26:23:72
  TRACK 07 AUDIO
    TITLE "Where You Hid the Truth"
    PERFORMER "Michael Franks"
    REM COMPOSER "Michael Franks"
    INDEX 01 30:45:30
  TRACK 08 AUDIO
    TITLE "The Music In My Head"
    PERFORMER "Michael Franks"
    REM COMPOSER "Michael Franks"
    INDEX 01 36:37:34
  TRACK 09 AUDIO
    TITLE "Candleglow"
    PERFORMER "Michael Franks"
    REM COMPOSER "Michael Franks"
    INDEX 01 41:34:58
  TRACK 10 AUDIO
    TITLE "Waterfall"
    PERFORMER "Michael Franks"
    REM COMPOSER "Michael Franks"
    INDEX 01 47:17:70

 

Скачивание доступно после регистрации!!
Приватный:
Нет (DHT включён)
Размер:
338.12 Мб (354,547,216 байт) » файлов: 10
Участники:
11 раздают, 0 качают (11 участников всего)
Внешние участники:
--- [ Обновить ]
16:59
106
RSS
Нет комментариев. Ваш будет первым!