Поиск

2018 Melissa Laveaux - Radyo Siwèl {NØ FØRMAT!} [24-44,1]

2018 Melissa Laveaux - Radyo Siwèl {NØ FØRMAT!} [24-44,1]
Издатель (лейбл):

 

Формат записи/Источник записи: [TR24][OF]
Наличие водяных знаков: Нет
Год издания/переиздания диска: 2018
Жанр: Vocal Jazz, Ethnic, Pop, World
Издатель (лейбл): NØ FØRMAT!
Продолжительность: 00:40:27
Наличие сканов в содержимом раздачи: front
Источник (релизер): fantastik <- qobuz
Контейнер: FLAC (*.flac)
Тип рипа: tracks
Разрядность: 24/44,1
Формат: FLAC
Количество каналов: 2.0

Треклист:
01. Lè Ma Monte Chwal Mwen 3:32
02. Nan Fon Bwa 3:21
03. Angeli-ko 3:39
04. Kouzen 2:21
05. Simalo 2:55
06. Jolibwa 2:55
07. Tolalito 4:29
08. Twa Fey 4:28
09. Legba Na Konsole 2:45
10. Lasirèn Labalèn 1:12
11. Nibo 3:17
12. Panama Mwen Tombe 5:33

 
Лог проверки качества
foobar2000 1.1.15 / Dynamic Range Meter 1.1.1
log date: 2018-02-09 19:21:14
--------------------------------------------------------------------------------
Analyzed: Melissa Laveaux / Radyo Siwèl
--------------------------------------------------------------------------------
DR         Peak         RMS     Duration Track
--------------------------------------------------------------------------------
DR6       -0.51 dB    -8.39 dB      3:32 01-Lè Ma Monte Chwal Mwen
DR5       -0.51 dB    -7.02 dB      3:21 02-Nan Fon Bwa
DR7       -0.51 dB    -7.97 dB      3:39 03-Angeli-ko
DR6       -0.51 dB    -8.06 dB      2:21 04-Kouzen
DR7       -0.51 dB    -9.60 dB      2:55 05-Simalo
DR7       -0.51 dB    -8.67 dB      2:55 06-Jolibwa
DR7       -0.51 dB    -8.31 dB      4:29 07-Tolalito
DR6       -0.51 dB    -8.31 dB      4:28 08-Twa Fey
DR7       -0.51 dB   -10.02 dB      2:45 09-Legba Na Konsole
DR12      -0.51 dB   -18.71 dB      1:12 10-Lasirèn Labalèn
DR5       -0.51 dB    -7.37 dB      3:17 11-Nibo
DR7       -0.50 dB    -8.41 dB      5:33 12-Panama Mwen Tombe
--------------------------------------------------------------------------------
Number of tracks:  12
Official DR value: DR7
Samplerate:        44100 Hz
Channels:          2
Bits per sample:   24
Bitrate:           1686 kbps
Codec:             FLAC
================================================================================

 

Скачивание доступно после регистрации!!
Приватный:
Нет (DHT включён)
Размер:
478.22 Мб (501,450,581 байт) » файлов: 16
Участники:
6 раздают, 0 качают (6 участников всего)
Внешние участники:
--- [ Обновить ]
11:21
57
RSS
Нет комментариев. Ваш будет первым!