Поиск

2018 Jamie Saft - Solo a Genova {RareNoise} [24-96]

2018 Jamie Saft - Solo a Genova {RareNoise} [24-96]
Стили:

Формат записи/Источник записи: [TR24][OF]
Наличие водяных знаков: Нет
Год издания/переиздания диска: 26 января 2018
Издатель (лейбл): RareNoise Records
Продолжительность: 63:58
Контейнер: FLAC (*.flac)
Тип рипа: tracks
Разрядность: 24/96
Формат: PCM
Количество каналов: 2.0
Источник: i-classical.com
Наличие сканов в содержимом раздачи: Только обложка альбома

Треклист:
01. The Makings Of You (3:36)
02. Human / Gates (4:41)
03. Naima (5:42)
04. Sharp Dressed Man (7:10)
05. Overjoyed (4:36)
06. Po'Boy (4:05)
07. The New Standard / Pinkus (12:43)
08. Blue Motel Room (6:10)
09. The Housatonic At Stockbridge (4:09)
10. Blue In Green (3:33)
11. Restless Farewell (7:30)

 
Лог проверки качества
foobar2000 1.3.9 / Dynamic Range Meter 1.1.1
log date: 2018-02-12 13:33:45
--------------------------------------------------------------------------------
Analyzed: Jamie Saft / Solo A Genova
--------------------------------------------------------------------------------
DR         Peak         RMS     Duration Track
--------------------------------------------------------------------------------
DR11      -0.25 dB   -14.80 dB      3:36 01-The Makings Of You
DR10      -0.25 dB   -13.19 dB      4:41 02-Human / Gates
DR11      -0.25 dB   -15.11 dB      5:42 03-Naima
DR10      -0.25 dB   -14.91 dB      7:10 04-Sharp Dressed Man
DR8       -0.25 dB   -11.07 dB      4:36 05-Overjoyed
DR12      -0.25 dB   -15.02 dB      4:05 06-Po'Boy
DR10      -0.25 dB   -14.57 dB     12:43 07-The New Standard / Pinkus
DR11      -0.25 dB   -14.51 dB      6:10 08-Blue Motel Room
DR10      -0.25 dB   -15.99 dB      4:09 09-The Housatonic At Stockbridge
DR11      -0.25 dB   -15.72 dB      3:33 10-Blue In Green
DR11      -0.25 dB   -14.47 dB      7:30 11-Restless Farewell
--------------------------------------------------------------------------------
Number of tracks:  11
Official DR value: DR10
Samplerate:        96000 Hz
Channels:          2
Bits per sample:   24
Bitrate:           1842 kbps
Codec:             FLAC
================================================================================

 

Приватный:
Нет (DHT включён)
Размер:
867.96 Мб (910,121,512 байт) » файлов: 14
Участники:
5 раздают, 0 качают (5 участников всего)
Внешние участники:
--- [ Обновить ]
11:27
38
RSS
Нет комментариев. Ваш будет первым!