Поиск

2018 Martti Vesala Soundpost Quintet - Stars Aligned {Ozella} [24-96]

2018 Martti Vesala Soundpost Quintet - Stars Aligned {Ozella} [24-96]
Стили:
Издатель (лейбл):

Треклист:

Формат записи/Источник записи: [TR24][OF]
Наличие водяных знаков: Нет
Год издания/переиздания диска: 2018
Жанр: Modern Creative
Издатель (лейбл): Ozella
Продолжительность: 42:54
Наличие сканов в содержимом раздачи: Буклет PDF
Контейнер: FLAC (*.flac)
Тип рипа: tracks
Разрядность: 24/96
Формат: PCM
Количество каналов: 2.0
Источник: qobuz.com

Треклист:
01. Compulsion (6:57)
02. The Sun's Eye (4:43)
03. Stars Aligned (6:15)
04. A Murder Of Crows (4:43)
05. The Lost Sea (5:42)
06. Rooftops (7:01)
07. Murky Green (2:45)
08. Driving Force (4:49)

 
Лог проверки качества
foobar2000 1.3.9 / Dynamic Range Meter 1.1.1
log date: 2018-06-05 23:34:37
--------------------------------------------------------------------------------
Analyzed: Martti Vesala Soundpost Quintet / Stars Aligned
--------------------------------------------------------------------------------
DR         Peak         RMS     Duration Track
--------------------------------------------------------------------------------
DR8       -0.65 dB   -10.11 dB      6:57 01-Compulsion
DR7       -0.65 dB    -9.63 dB      4:43 02-The Sun's Eye
DR7       -0.64 dB    -8.93 dB      6:15 03-Stars Aligned
DR7       -0.65 dB    -9.40 dB      4:43 04-A Murder Of Crows
DR6       -0.64 dB    -9.42 dB      5:42 05-The Lost Sea
DR7       -0.64 dB    -9.05 dB      7:01 06-Rooftops
DR8       -0.64 dB   -11.38 dB      2:45 07-Murky Green
DR7       -0.64 dB   -10.43 dB      4:49 08-Driving Force
--------------------------------------------------------------------------------
Number of tracks:  8
Official DR value: DR7
Samplerate:        96000 Hz
Channels:          2
Bits per sample:   24
Bitrate:           2917 kbps
Codec:             FLAC
================================================================================

 

Состав:
  • Martti Vesala - trumpet, fluegelhorn
  • Petri Puolitaival - tenor saxophone, flute
  • Joonas Haavisto - piano
  • Juho Kivivuori - double bass
  • Ville Pynssi - drums, percussion

Produced by Martti Vesala. Engineered & Mixed by Miikka Huttunen.
Recorded on December 6-8, 2016 at Finnvox Studios, Helsinki.
Mixed by Miikka Huttunen at Neomusic, February 2017.
Mastered by Svante Forsbäck at Chartmakers West, March 2017.

Download available for power users only.
21:09
665
Нет комментариев. Ваш будет первым!